Скачать фильм торрент жертвуя пешкой


Скачать торрент Жертвуя пешкой / Pawn Sacrifice (2014) BDRip 720p

Информация о фильмеНазвание: Жертвуя пешкойОригинальное название: Pawn SacrificeГод выхода: 2015Жанр: драма, биографияРежиссер: Эдвард ЦвикВ ролях: Тоби Магуайр, Лив Шрайбер, Робин Вайгерт, Лили Рэйб, Питер Сарсгаард, Майкл Стулбарг, Софи Нелисс, Эвелин Брошу, Шеймас Дэви-Фицпатрик, Лидия Зедел

О фильме: В разгар Холодной войны внимание всей планеты приковано к «схватке столетия» — матчу за звание чемпиона мира по шахматам в Рейкьявике. Бой между абсолютным чемпионом Борисом Спасским и по-настоящему одержимым игрой Бобби Фишером превращается в борьбу за интеллектуальное превосходство двух сверхдержав. Права на проигрыш нет. Вокруг поединка разражается мировой скандал. Спасскому приходится справляться с беспрецедентным давлением. Гениальный разум Фишера, взвинченный паранойей, начинает охватывать безумие.

Выпущено: США / Gail Katz Productions, Material Pictures, Mel's Cite du Cinema, MICA Entertainment, Palm-Star Entertainment, PenLife MediaПродолжительность: 01:55:43Озвучивание: Дублированное [iTunes]

ФайлФормат: MKV \(x264\)Качество: BDRip 720p [VietHD]Видео: 7939 kb/s, 1280x536Звук: Russian: AC3, 384 kb/s (6 ch) / English: AC3, 640 kb/s (6 ch) Субтитры: English

МедиаИнфо

Format : Matroska Format version : Version 4 / Version 2 File size : 7.39 GiB Duration : 1h 55mn Overall bit rate : 9 145 Kbps Movie name : F2 Encoded date : UTC 2015-12-16 19:17:55 Writing application : mkvmerge v8.3.0 ('Over the Horizon') 64bit Writing library : libebml v1.3.1 + libmatroska v1.4.2

Video ID : 1 Format : AVC Format/Info : Advanced Video Codec Format profile : [email protected] Format settings, CABAC : Yes Format settings, ReFrames : 12 frames Codec ID : V_MPEG4/ISO/AVC Duration : 1h 55mn Bit rate : 7 939 Kbps Width : 1 280 pixels Height : 536 pixels Display aspect ratio : 2.40:1 Frame rate mode : Constant Frame rate : 23.976 fps Color space : YUV Chroma subsampling : 4:2:0 Bit depth : 8 bits Scan type : Progressive Bits/(Pixel*Frame) : 0.483 Stream size : 6.42 GiB (87%) Writing library : x264 core 148 r2638kMod 7599210 Encoding settings : cabac=1 / ref=12 / deblock=1:-3:-3 / analyse=0x3:0x133 / me=umh / subme=10 / psy=1 / fade_compensate=0.00 / psy_rd=1.08:0.00 / mixed_ref=1 / me_range=24 / chroma_me=1 / trellis=2 / 8x8dct=1 / cqm=0 / deadzone=21,11 / fast_pskip=1 / chroma_qp_offset=-2 / threads=6 / lookahead_threads=1 / sliced_threads=0 / nr=0 / decimate=1 / interlaced=0 / bluray_compat=0 / constrained_intra=0 / fgo=0 / bframes=9 / b_pyramid=2 / b_adapt=2 / b_bias=0 / direct=3 / weightb=1 / open_gop=0 / weightp=2 / keyint=250 / keyint_min=23 / scenecut=40 / intra_refresh=0 / rc=crf / mbtree=0 / crf=17.4000 / qcomp=0.65 / qpmin=0 / qpmax=69 / qpstep=4 / ip_ratio=1.30 / pb_ratio=1.20 / aq=3:0.68 Language : English Default : Yes Forced : No Color range : Limited Matrix coefficients : BT.709

Audio #1 ID : 2 Format : AC-3 Format/Info : Audio Coding 3 Mode extension : CM (complete main) Format settings, Endianness : Big Codec ID : A_AC3 Duration : 1h 55mn Bit rate mode : Constant Bit rate : 384 Kbps Channel(s) : 6 channels Channel positions : Front: L C R, Side: L R, LFE Sampling rate : 48.0 KHz Bit depth : 16 bits Compression mode : Lossy Stream size : 318 MiB (4%) Language : Russian Default : Yes Forced : No

Audio #2 ID : 3 Format : AC-3 Format/Info : Audio Coding 3 Mode extension : CM (complete main) Format settings, Endianness : Big Codec ID : A_AC3 Duration : 1h 55mn Bit rate mode : Constant Bit rate : 640 Kbps Channel(s) : 6 channels Channel positions : Front: L C R, Side: L R, LFE Sampling rate : 48.0 KHz Bit depth : 16 bits Compression mode : Lossy Stream size : 530 MiB (7%) Language : English Default : No Forced : No

Text #1 ID : 4 Format : UTF-8 Codec ID : S_TEXT/UTF8 Codec ID/Info : UTF-8 Plain Text Title : english Language : English Default : No Forced : No

Text #2 ID : 5 Format : UTF-8 Codec ID : S_TEXT/UTF8 Codec ID/Info : UTF-8 Plain Text Title : english sdh Language : English Default : No Forced : No

Menu 00:00:00.000 : en:00:00:00.000 00:06:40.025 : en:00:06:40.025 00:10:34.843 : en:00:10:34.843 00:15:15.540 : en:00:15:15.540 00:20:03.536 : en:00:20:03.536 00:26:01.852 : en:00:26:01.852 00:31:15.123 : en:00:31:15.123 00:38:54.040 : en:00:38:54.040 00:45:24.180 : en:00:45:24.180 00:51:00.140 : en:00:51:00.140 00:55:47.803 : en:00:55:47.803 00:59:35.614 : en:00:59:35.614 01:07:02.435 : en:01:07:02.435 01:10:49.537 : en:01:10:49.537 01:18:07.808 : en:01:18:07.808 01:22:53.677 : en:01:22:53.677 01:29:49.884 : en:01:29:49.884 01:35:09.495 : en:01:35:09.495 01:39:16.951 : en:01:39:16.951 01:48:15.114 : en:01:48:15.114

krutor.org

Скачать фильм Жертвуя пешкой (2014) через торрент

17 августа 2016 12:32 Жертвуя пешкой / Pawn Sacrifice (2014) HDRip от Kaztorrents | КПК | iTunes .torrent   [Информация о файле (нажмите для просмотра)] Перевод: Профессиональный (полное дублирование) [iTunes] Субтитры: есть, английские Качество: HDRip (Исходник BDRip 720p)Формат: MP4 522,31 Mb 12 6 17 августа 2016 12:32 Жертвуя пешкой / Pawn Sacrifice (2014) BDRip-AVC от HELLYWOOD | iTunes .torrent   [Информация о файле (нажмите для просмотра)] Перевод: Дубляж [iTunes]Субтитры: русские, английские (Full + SDH + SDH-Colored)Качество: BDRip-AVCФормат: MKVВидео: AVC, 1032x430 (2.40:1), 1801 kbps, 23,976 fps, 0,169 bppАудио №1: AC3 / 5.1 / 48 kHz / 384 kbps / 16 bit| RUS Аудио №2: AC3 / 5.1 / 48 kHz / 448 kbps / 16 bit| ENG 2,13 Gb 39 5 17 августа 2016 12:32 Жертвуя пешкой / Pawn Sacrifice (2014) HDRip от MediaClub | КПК | iTunes .torrent   [Информация о файле (нажмите для просмотра)] Качество: HDRipВидео: MPEG-4 AVC, 500 Кбит/с, 480x202, 23.976 кадр/сАудио: Русский (AAC, 2 ch, 128 Кбит/с) / Дублированный 525,99 Mb 3 3 17 августа 2016 12:32 Жертвуя пешкой / Pawn Sacrifice (2014) BDRip 720p от Scarabey | iTunes .torrent   [Информация о файле (нажмите для просмотра)] Перевод: Профессиональный (полное дублирование) [iTunes]Субтитры: есть,английскиеВидео: 1280 x 534, 23.976 fps, AVC ~7019 kbps avgАудио: 48 kHz, AC3 Dolby Digital, 3/2 (L,C,R,l,r) + LFE ch, ~384.00 kbps avg - дубляжАудио: 48 kHz, DTS, 3/2 (L,C,R,l,r) + LFE ch, ~1509.00 kbps avg - оригинал 7,53 Gb 22 4 17 августа 2016 12:32 Жертвуя пешкой / Pawn Sacrifice (2014) HDRip от Scarabey | iTunes .torrent   [Информация о файле (нажмите для просмотра)] Перевод: Профессиональный (полное дублирование) [iTunes]Субтитры: нетВидео: 720x304 (2.37:1), 23.976 fps, XviD build 73 ~1399 kbps avg, 0.27 bit/pixelАудио: 48 kHz, AC3 Dolby Digital, 3/2 (L,C,R,l,r) + LFE ch, ~384.00 kbps avg 1,45 Gb 45 4 17 августа 2016 12:32 Жертвуя пешкой / Pawn Sacrifice (2014) HDRip от Scarabey | iTunes .torrent   [Информация о файле (нажмите для просмотра)] Перевод: Профессиональный (полное дублирование) [iTunes]Субтитры: нетВидео: 688x288 (2.39:1), 23.976 fps, XviD build 73 ~765 kbps avg, 0.16 bit/pixelАудио: 48 kHz, MPEG Layer 3, 2 ch, ~128.00 kbps avg 747,67 Mb 57 4 17 августа 2016 12:32 Жертвуя пешкой / Pawn Sacrifice (2014) Blu-Ray от BlueBird | iTunes .torrent   [Информация о файле (нажмите для просмотра)] Перевод: полное дублирование[iTunes]Кодек: MPEG-4 AVCКачество: Blu-RayВидео: 32294 Кbps, 1920x1080, 23.976 fpsАудио 1: DTS-HD MA 6 ch, 48.0 KHz, 3363 Кbps(английский)Аудио 2: Dolby Digital 6 ch, 48.0 KHz, 384 Кbps(русский)Субтитры: английские, испанскиеBD-InfoDISC INFO: 31,66 Gb 3 3 17 августа 2016 12:32 Жертвуя пешкой / Pawn Sacrifice (2014) BDRip-AVC от New-Team | iTunes .torrent   [Информация о файле (нажмите для просмотра)] Перевод: Профессиональный (полное дублирование) [Лицензия iTunes]Субтитры: английские, английские (SDH)Видео: 2705 Кбит/сек, 1152*482 (2,35:1), в 23,976 кадр/сек, AVCАудио #1: Russian, 384 Кбит/сек, 48,0 КГц, 16 бит, 6 канала(ов), AC-3Аудио #2: English, 448 Кбит/сек, 48,0 КГц, 16 бит, 6 канала(ов), AC-3Видео: Идентификатор : 1 Формат : AVC Формат/Информация : Advanced Video Codec Профиль формата : [email protected] Параметр CABAC формата : Да Параметр ReFrames формата : 13 кадры Идентификатор кодека : V_MPEG4/ISO/AVC Продолжительность : 1 ч. 55 м. Битрейт : 2705 Кбит/сек Ширина : 1152 пикс. Высота : 482 пикс. Соотношение сторон : 2,35:1 Частота кадров : 23,976 кадр/сек Цветовое пространство : YUV Подвыборка цветности : 4:2:0 Битовая глубина : 8 бит Тип развёртки : Прогрессивная Бит/(Пиксели*Кадры) : 0.203 Размер потока : 2,12 Гбайт (74%) Заголовок : Pawn Sacrifice (2014) (New-Team) (Rip by Stalker oK) Библиотека кодирования : x264 core 148 r2638 7599210 Настройки программы : cabac=1 / ref=13 / deblock=1:-3:-3 / analyse=0x3:0x133 / me=umh / subme=11 / psy=1 / psy_rd=1.00:0.10 / mixed_ref=1 / me_range=48 / chroma_me=1 / trellis=2 / 8x8dct=1 / cqm=0 / deadzone=21,11 / fast_pskip=0 / chroma_qp_offset=-3 / threads=12 / lookahead_threads=3 / sliced_threads=0 / nr=0 / decimate=0 / interlaced=0 / bluray_compat=0 / constrained_intra=0 / bframes=14 / b_pyramid=2 / b_adapt=2 / b_bias=0 / direct=3 / weightb=1 / open_gop=0 / weightp=2 / keyint=240 / keyint_min=23 / scenecut=40 / intra_refresh=0 / rc_lookahead=60 / rc=2pass / mbtree=0 / bitrate=2705 / ratetol=1.0 / qcomp=0.70 / qpmin=0 / qpmax=69 / qpstep=4 / cplxblur=20.0 / qblur=0.5 / vbv_maxrate=50000 / vbv_bufsize=62500 / nal_hrd=none / filler=0 / ip_ratio=1.40 / pb_ratio=1.30 / aq=3:0.90Аудио #1: Идентификатор : 2 Формат : AC-3 Формат/Информация : Audio Coding 3 Расширение режима : CM (complete main) Идентификатор кодека : A_AC3 Продолжительность : 1 ч. 55 м. Вид битрейта : Постоянный Битрейт : 384 Кбит/сек Канал(ы) : 6 канала(ов) Расположение каналов : Front: L C R, Side: L R, LFE Частота : 48,0 КГц Битовая глубина : 16 бит Метод сжатия : С потерями Размер потока : 318 Мбайт (11%) Язык : RussianАудио #2: Идентификатор : 3 Формат : AC-3 Формат/Информация : Audio Coding 3 Расширение режима : CM (complete main) Идентификатор кодека : A_AC3 Продолжительность : 1 ч. 55 м. Вид битрейта : Постоянный Битрейт : 448 Кбит/сек Канал(ы) : 6 канала(ов) Расположение каналов : Front: L C R, Side: L R, LFE Частота : 48,0 КГц Битовая глубина : 16 бит Метод сжатия : С потерями Размер потока : 371 Мбайт (13%) Язык : English 2,85 Gb 43 5 17 августа 2016 12:32 Жертвуя пешкой / Pawn Sacrifice (2014) BD-Remux 1080p | iTunes .torrent   [Информация о файле (нажмите для просмотра)] Перевод: Дублированный[iTunes]Формат: MKVКачество: BD-Remux 1080pВидео: MPEG-4 AVC, 32294 Кбит/с, 1920x1080Аудио: Русский (AC3, 6 ch, 384 Кбит/с), английский (DTS-HD MA, 6 ch, 3363 Кбит/с)Субтитры: Английские, испанскиеВидео: Идентификатор : 1 Формат : AVC Формат/Информация : Advanced Video Codec Профиль формата : [email protected] Параметр CABAC формата : Да Параметр ReFrames формата : 4 кадра Идентификатор кодека : V_MPEG4/ISO/AVC Продолжительность : 1 ч. 55 м. Вид битрейта : Переменный Максимальный битрейт : 35,0 Мбит/сек Ширина : 1920 пикселей Высота : 1080 пикселей Соотношение сторон : 16:9 Режим частоты кадров : Постоянный Частота кадров : 23,976 кадра/сек Цветовое пространство : YUV Субдискретизация насыщенности : 4:2:0 Битовая глубина : 8 бит Тип развёртки : Прогрессивная Default : Да Forced : Нет Аудио #1: Идентификатор : 2 Формат : AC-3 Формат/Информация : Audio Coding 3 Расширение режима : CM (complete main) Параметр Endianness формата : Big Идентификатор кодека : A_AC3 Продолжительность : 1 ч. 55 м. Вид битрейта : Постоянный Битрейт : 384 Кбит/сек Каналы : 6 каналов Расположение каналов : Front: L C R, Side: L R, LFE Частота : 48,0 КГц Битовая глубина : 16 бит Метод сжатия : С потерями Размер потока : 318 Мбайт (1%) Язык : Russian Default : Да Forced : Нет Аудио #2: Идентификатор : 3 Формат : DTS Формат/Информация : Digital Theater Systems Профиль формата : MA / Core Режим : 16 Параметр Endianness формата : Big Идентификатор кодека : A_DTS Продолжительность : 1 ч. 55 м. Вид битрейта : Переменный Битрейт : Неизвестно / 1509 Кбит/сек Каналы : 6 каналов Расположение каналов : Front: L C R, Side: L R, LFE Частота : 48,0 КГц Битовая глубина : 24 бит Метод сжатия : Без потерь / Lossy Язык : English Default : Нет Forced : Нет 28,33 Gb 3 3 17 августа 2016 12:31 Жертвуя пешкой / Pawn Sacrifice (2014) BDRip-AVC от New-Team | iTunes .torrent   [Информация о файле (нажмите для просмотра)] Перевод: Профессиональный (полное дублирование) [Лицензия iTunes]Субтитры: английские, английские (SDH)Видео: 1418 Кбит/сек, 904x378 (2.35:1), 23,976 кадр/сек, AVCАудио: русский, 384 Кбит/сек, 48 КГц, 16 бит, 5.1, AC3 1,45 Gb 153 7 17 августа 2016 12:31 Жертвуя пешкой / Pawn Sacrifice (2014) BDRip 1080p от HDReactor | iTunes .torrent   [Информация о файле (нажмите для просмотра)] Качество: BDRip 1080pВидео: 1920x802, 13.3 Мбит/сек, 23,976 кадр/секАудио: Russian: AC3, 384 kb/s (6 ch) / English: AC3, 448 kb/s (6 ch)Субтитры: EnglishВидео: Идентификатор : 1 Формат : AVC Формат/Информация : Advanced Video Codec Профиль формата : [email protected] Параметр CABAC формата : Да Параметр ReFrames формата : 5 кадров Идентификатор кодека : V_MPEG4/ISO/AVC Продолжительность : 1 ч. 55 м. Битрейт : 13,3 Мбит/сек Ширина : 1920 пикселей Высота : 802 пикселя Соотношение сторон : 2,40:1 Режим частоты кадров : Постоянный Частота кадров : 23,976 кадра/сек Цветовое пространство : YUV Субдискретизация насыщенности : 4:2:0 Битовая глубина : 8 бит Тип развёртки : Прогрессивная Бит/(Пиксели*Кадры) : 0.361 Размер потока : 10,5 Гбайт (92%) Заголовок : ~V~ Библиотека кодирования : x264 core 148 r2579+50 65f745f t_mod_Custom [[email protected] X86_64] Настройки программы : cabac=1 / ref=5 / deblock=1:-3:-3 / analyse=0x3:0x133 / me=umh / subme=11 / psy=1 / fade_compensate=0.00 / psy_rd=1.00:0.00 / mixed_ref=1 / me_range=32 / chroma_me=1 / trellis=2 / 8x8dct=1 / cqm=0 / deadzone=21,11 / fast_pskip=0 / chroma_qp_offset=-2 / threads=12 / lookahead_threads=1 / sliced_threads=0 / nr=0 / decimate=0 / interlaced=0 / bluray_compat=0 / constrained_intra=0 / fgo=0 / bframes=11 / b_pyramid=2 / b_adapt=2 / b_bias=0 / direct=3 / weightb=1 / open_gop=0 / weightp=2 / keyint=240 / keyint_min=23 / scenecut=40 / intra_refresh=0 / rc=2pass / mbtree=0 / bitrate=13322 / ratetol=1.0 / qcomp=0.60 / qpmin=0:0:0 / qpmax=69:69:69 / qpstep=4 / cplxblur=20.0 / qblur=0.5 / ip_ratio=1.40 / pb_ratio=1.30 / aq=1:0.75 / aq-sensitivity=11.00 / aq-factor=1.00:1.00:1.00 / aq2=1:0.60 / aq2-sensitivity=10.00 / aq2-factor=1.00:1.00:1.00 / aq3=1:[0.60:0.60]:[0.60:0.60]:[0.60:0.60]:[0.60:0.60] / aq3-sensitivity=9.00 / aq3-factor=[1.00:1.00]:[1.00:1.00]:[1.00:1.00] / aq3-boundary=192:64:24 Язык : English Default : Да Forced : НетАудио #1: Идентификатор : 2 Формат : AC-3 Формат/Информация : Audio Coding 3 Расширение режима : CM (complete main) Параметр Endianness формата : Big Идентификатор кодека : A_AC3 Продолжительность : 1 ч. 55 м. Вид битрейта : Постоянный Битрейт : 384 Кбит/сек Каналы : 6 каналов Расположение каналов : Front: L C R, Side: L R, LFE Частота : 48,0 КГц Метод сжатия : С потерями Размер потока : 318 Мбайт (3%) Заголовок : iTunes Язык : Russian Default : Да Forced : ДаАудио #2: Идентификатор : 3 Формат : AC-3 Формат/Информация : Audio Coding 3 Расширение режима : CM (complete main) Параметр Endianness формата : Big Идентификатор кодека : A_AC3 Продолжительность : 1 ч. 55 м. Вид битрейта : Постоянный Битрейт : 448 Кбит/сек Каналы : 6 каналов Расположение каналов : Front: L C R, Side: L R, LFE Частота : 48,0 КГц Метод сжатия : С потерями Размер потока : 371 Мбайт (3%) Язык : English Default : Нет Forced : Нет 11,44 Gb 94 9 17 августа 2016 12:31 Жертвуя пешкой / Pawn Sacrifice (2014) BDRip 720p | iTunes .torrent   [Информация о файле (нажмите для просмотра)] Формат: MKV (x264)Качество: BDRip 720p [VietHD]Видео: 7939 kb/s, 1280x536Звук: Russian: AC3, 384 kb/s (6 ch) / English: AC3, 640 kb/s (6 ch)Субтитры: English 7,39 Gb 42 3 17 августа 2016 12:31 Жертвуя пешкой / Pawn Sacrifice (2014) HDRip | iTunes .torrent   [Информация о файле (нажмите для просмотра)] Формат: AVI (XviD)Качество: HDRipВидео: 1406 kb/s, 720x304Аудио: AC3, 384 kb/s (6 ch) 1,45 Gb 131 5 17 августа 2016 12:31 Жертвуя пешкой / Pawn Sacrifice (2014) HDRip | iTunes .torrent   [Информация о файле (нажмите для просмотра)] Формат: AVI (XviD)Качество: HDRipВидео: 1915 kb/s, 720x304Аудио: Russian / English: AC3, 384 kb/s (6 ch) 2,18 Gb 13 2

gig-torrent.net

Скачать фильм Жертвуя пешкой через торрент в хорошем качестве бесплатно BDRip от Twi7ter

Раздают: 2 [ 0 KB/s ]
Размер: 1.41 GB | Добавлен: 1 год 10 мес. назад | Торрент скачан:909 раз
Реклама Дарим 3000 рублей за регистрацию, не упусти свой шанс получить шикарный бонус!!!

17-12-2015 16:12 Жертвуя пешкой Скачать торрент  

Жертвуя пешкой / Pawn Sacrifice

«СССР против США. Гений против гения. Разум против безумия»

Год выпуска: 2014Страна: СШАЖанр: драма, биографияПродолжительность: 01:55:43Перевод: Профессиональный (полное дублирование) [iTunes]Субтитры: НетРежиссер: Эдвард Цвик / Edward ZwickВ ролях: Тоби Магуайр (Bobby Fischer), Лив Шрайбер (Boris Spassky), Робин Вайгерт (Regina Fischer), Лили Рэйб (Joan Fischer), Питер Сарсгаард (Father Bill Lombardy), Майкл Стулбарг (Paul Marshall), Софи Нелисс (Young Joan), Эвелин Брошу (Donna), Шеймас Дэви-Фицпатрик (Teen Bobby Fischer), Лидия Зедел (Kissing Woman), Конрад Пла (Carmine Nigro), Илья Волох (KGB Agent)Описание: В разгар Холодной войны внимание всей планеты приковано к «схватке столетия» - матчу за звание чемпиона мира по шахматам в Рейкьявике. Бой между абсолютным чемпионом Борисом Спасским и по-настоящему одержимым игрой Бобби Фишером превращается в борьбу за интеллектуальное превосходство двух сверхдержав. Права на проигрыш нет. Вокруг поединка разражается мировой скандал. Спасскому приходится справляться с беспрецедентным давлением. Гениальный разум Фишера, взвинченный паранойей, начинает охватывать безумие.Рейтинг:

MPAA: PG-13 - Детям до 13 лет просмотр не желателен

Качество: BDRip | исх. Pawn.Sacrifice.2014.1080p.BluRay.AVC.DTS-HD.MA.5.1 |Формат: AVIВидео кодек: XviDАудио кодек: AC3Видео: 720x304 (2.37:1), 23.976 fps, XviD build 73 ~1351 kbps avg, 0.26 bit/pixelАудио: 48 kHz, AC3 Dolby Digital, 3/2 (L,C,R,l,r) + LFE ch, ~384 kbps

Релиз: & MegaPeer

Скачать Жертвуя пешкой через торрент http://s018.radikal.ru/i517/1512/5d/f187ddf99818.png Скачать фильм Жертвуя пешкой через торрент бесплантно в хорошем качестве Описание: В разгар Холодной войны внимание всей планеты приковано к «схватке столетия» - матчу за звание чемпиона мира по шахматам в ... 2015-12-17 16:12 9.6 10 13

Loading...

Loading...

% Раздел Тема Автор DL S | L
Фильмы 2014 [DVDrip, WEB-DLRip, HDrip] [ 2.13 GB ] Жертвуя пешкой / Pawn Sacrifice [2014 биография BDRip-AVC] Dub [ ] potroks Скачать
Фильмы 2014 [DVDrip, WEB-DLRip, HDrip] [ 1.45 GB ] Жертвуя пешкой / Pawn Sacrifice [2014 биография BDRip-AVC от sokol_ok] Dub sokol_ok Скачать
R.G.Resident - Фильмы, Видео [ 2.99 GB ] Жертвуя пешкой / Pawn Sacrifice [2014 биография BDRip-AVC () + Оригинал] от R.G. Resident Dean24 Скачать
Фильмы (Blu-ray, BD-Remux, HDDVD) [ 28.33 GB ] Жертвуя пешкой / Pawn Sacrifice [2015 биография BD Remux ] Russian Mafia Скачать
Фильмы 2014 [DVDrip, WEB-DLRip, HDrip] [ 1.45 GB ] Жертвуя пешкой / Pawn Sacrifice [2014 биография HDRip ] Ворон Скачать
Фильмы [HD 720p, 1080p] (Хороший звук DUB, MVO) [ 11.44 GB ] Жертвуя пешкой / Pawn Sacrifice [2014 биография BDRip 1080p] Ворон Скачать
Фильмы 2014 [DVDrip, WEB-DLRip, HDrip] [ 2.85 GB ] Жертвуя пешкой / Pawn Sacrifice [2014 биография BDRip-AVC от sokol_ok] Dub sokol_ok Скачать

Рекламный пират

17-12-2015 20:05 Жертвуя пешкой Скачать торрент  

Стоит ли смотреть данное кинцо??Автору спасибо!)

17-12-2015 20:33 Жертвуя пешкой Скачать торрент  

Думаю, что стоит

Дорогой пользователь! Огромная просьба, поблагодарите релизера, оцените раздачу и оставьте свои комментарий, если Вы скачали Жертвуя пешкой через торрент бесплатно! Внесите свою лепту в развитие PiratBit!

Комментировать посты могут только пользователи прошедшие не сложную регистрацию

Жертвуя пешкой через торрент Скачать бесплатно Жертвуя пешкой Жертвуя пешкой скачать торрент Жертвуя пешкой смотреть онлайн Cкачать фильм Жертвуя пешкой бесплатно Жертвуя пешкой скачать торрент в хорошем качестве Жертвуя пешкой смотреть онлайн бесплатно в хорошем качестве

Вы не можете начинать темыВы не можете отвечать на сообщенияВы не можете редактировать свои сообщенияВы не можете удалять свои сообщенияВы не можете голосовать в опросахВы не можете прикреплять файлы к сообщениямВы можете скачивать файлы

piratbit.ru

Скачать фильм Жертвуя пешкой через торрент в хорошем качестве бесплатно 720p

GeneralUnique ID : 181099918859379190220195136115838496265 (0x883E935ED46CE336A5D3BFDDDB172E09)Complete name : D:\Торенты\Zhertvuja.Peshkoi.2015.D.BDRip.720p.mkvFormat : MatroskaFormat version : Version 4 / Version 2File size : 7.39 GiBDuration : 1h 55mnOverall bit rate : 9 145 KbpsMovie name : F2Encoded date : UTC 2015-12-16 19:17:55Writing application : mkvmerge v8.3.0 ('Over the Horizon') 64bitWriting library : libebml v1.3.1 + libmatroska v1.4.2

VideoID : 1Format : AVCFormat/Info : Advanced Video CodecFormat profile : [email protected] settings, CABAC : YesFormat settings, ReFrames : 12 framesCodec ID : V_MPEG4/ISO/AVCDuration : 1h 55mnBit rate : 7 939 KbpsWidth : 1 280 pixelsHeight : 536 pixelsDisplay aspect ratio : 2.40:1Frame rate : 23.976 fpsColor space : YUVChroma subsampling : 4:2:0Bit depth : 8 bitsScan type : ProgressiveBits/(Pixel*Frame) : 0.483Stream size : 6.42 GiB (87%)Writing library : x264 core 148 r2638kMod 7599210Encoding settings : cabac=1 / ref=12 / deblock=1:-3:-3 / analyse=0x3:0x133 / me=umh / subme=10 / psy=1 / fade_compensate=0.00 / psy_rd=1.08:0.00 / mixed_ref=1 / me_range=24 / chroma_me=1 / trellis=2 / 8x8dct=1 / cqm=0 / deadzone=21,11 / fast_pskip=1 / chroma_qp_offset=-2 / threads=6 / lookahead_threads=1 / sliced_threads=0 / nr=0 / decimate=1 / interlaced=0 / bluray_compat=0 / constrained_intra=0 / fgo=0 / bframes=9 / b_pyramid=2 / b_adapt=2 / b_bias=0 / direct=3 / weightb=1 / open_gop=0 / weightp=2 / keyint=250 / keyint_min=23 / scenecut=40 / intra_refresh=0 / rc=crf / mbtree=0 / crf=17.4000 / qcomp=0.65 / qpmin=0 / qpmax=69 / qpstep=4 / ip_ratio=1.30 / pb_ratio=1.20 / aq=3:0.68Language : EnglishDefault : YesForced : NoMatrix coefficients : BT.709-5, BT.1361, IEC 61966-2-4 709, SMPTE RP177

Audio #1ID : 2Format : AC-3Format/Info : Audio Coding 3Mode extension : CM (complete main)Codec ID : A_AC3Duration : 1h 55mnBit rate mode : ConstantBit rate : 384 KbpsChannel(s) : 6 channelsChannel positions : Front: L C R, Side: L R, LFESampling rate : 48.0 KHzBit depth : 16 bitsCompression mode : LossyStream size : 318 MiB (4%)Language : RussianDefault : YesForced : No

Audio #2ID : 3Format : AC-3Format/Info : Audio Coding 3Mode extension : CM (complete main)Codec ID : A_AC3Duration : 1h 55mnBit rate mode : ConstantBit rate : 640 KbpsChannel(s) : 6 channelsChannel positions : Front: L C R, Side: L R, LFESampling rate : 48.0 KHzBit depth : 16 bitsCompression mode : LossyStream size : 530 MiB (7%)Language : EnglishDefault : NoForced : No

Text #1ID : 4Format : UTF-8Codec ID : S_TEXT/UTF8Codec ID/Info : UTF-8 Plain TextTitle : englishLanguage : EnglishDefault : NoForced : No

Text #2ID : 5Format : UTF-8Codec ID : S_TEXT/UTF8Codec ID/Info : UTF-8 Plain TextTitle : english sdhLanguage : EnglishDefault : NoForced : No

Menu00:00:00.000 : en:00:00:00.00000:06:40.025 : en:00:06:40.02500:10:34.843 : en:00:10:34.84300:15:15.540 : en:00:15:15.54000:20:03.536 : en:00:20:03.53600:26:01.852 : en:00:26:01.85200:31:15.123 : en:00:31:15.12300:38:54.040 : en:00:38:54.04000:45:24.180 : en:00:45:24.18000:51:00.140 : en:00:51:00.14000:55:47.803 : en:00:55:47.80300:59:35.614 : en:00:59:35.61401:07:02.435 : en:01:07:02.43501:10:49.537 : en:01:10:49.53701:18:07.808 : en:01:18:07.80801:22:53.677 : en:01:22:53.67701:29:49.884 : en:01:29:49.88401:35:09.495 : en:01:35:09.49501:39:16.951 : en:01:39:16.95101:48:15.114 : en:01:48:15.114

piratbit.ru

Скачать фильм Жертвуя пешкой через торрент в хорошем качестве бесплатно BDRip-AVC от potroks

GeneralUnique ID                   : 170882361006195290680174586539423480215 (0x808EBEDFD59C3B2AB0784BBA7EC6B997)Complete name               : Zchertvuya.Peshkoy.2014.DUAL.BDRip.x264.-HELLYWOOD.mkvFormat                      : MatroskaFormat version              : Version 4 / Version 2File size                   : 2.13 GiBDuration                    : 1h 55mnOverall bit rate            : 2 630 KbpsMovie name                  : Pawn Sacrifice (2014) - HELLYWOODEncoded date                : UTC 2010-02-22 21:41:31Writing application         : mkvmerge v5.8.0 ('No Sleep / Pillow') built on Sep 30 2012 10:57:14Writing library             : libebml v1.3.0 + libmatroska v1.4.0

VideoID                          : 1Format                      : AVCFormat/Info                 : Advanced Video CodecFormat profile              : [email protected] settings, CABAC      : YesFormat settings, ReFrames   : 10 framesCodec ID                    : V_MPEG4/ISO/AVCDuration                    : 1h 55mnBit rate                    : 1 801 KbpsWidth                       : 1 032 pixelsHeight                      : 430 pixelsDisplay aspect ratio        : 2.40:1Frame rate mode             : ConstantFrame rate                  : 23.976 fpsColor space                 : YUVChroma subsampling          : 4:2:0Bit depth                   : 8 bitsScan type                   : ProgressiveBits/(Pixel*Frame)          : 0.169Stream size                 : 1.41 GiB (66%)Title                       : potroksWriting library             : x264 core 146 r2538 121396cEncoding settings           : cabac=1 / ref=10 / deblock=1:-2:-2 / analyse=0x3:0x113 / me=umh / subme=11 / psy=1 / psy_rd=1.00:0.05 / mixed_ref=1 / me_range=48 / chroma_me=1 / trellis=2 / 8x8dct=1 / cqm=0 / deadzone=21,11 / fast_pskip=0 / chroma_qp_offset=-3 / threads=9 / lookahead_threads=2 / sliced_threads=0 / nr=0 / decimate=0 / interlaced=0 / bluray_compat=0 / constrained_intra=0 / bframes=11 / b_pyramid=2 / b_adapt=2 / b_bias=0 / direct=3 / weightb=1 / open_gop=0 / weightp=2 / keyint=240 / keyint_min=23 / scenecut=40 / intra_refresh=0 / rc_lookahead=60 / rc=2pass / mbtree=0 / bitrate=1801 / ratetol=1.0 / qcomp=0.70 / qpmin=0 / qpmax=69 / qpstep=4 / cplxblur=20.0 / qblur=0.5 / vbv_maxrate=14000 / vbv_bufsize=14000 / nal_hrd=none / filler=0 / ip_ratio=1.35 / pb_ratio=1.25 / aq=1:0.80Language                    : EnglishDefault                     : YesForced                      : No

Audio #1ID                          : 2Format                      : AC-3Format/Info                 : Audio Coding 3Mode extension              : CM (complete main)Format settings, Endianness : BigCodec ID                    : A_AC3Duration                    : 1h 55mnBit rate mode               : ConstantBit rate                    : 384 KbpsChannel(s)                  : 6 channelsChannel positions           : Front: L C R, Side: L R, LFESampling rate               : 48.0 KHzFrame rate                  : 31.250 fps (1536 spf)Compression mode            : LossyStream size                 : 318 MiB (15%)Title                       : Dub | DD 5.1 @ 384 kbps - iTunesLanguage                    : RussianDefault                     : YesForced                      : No

Audio #2ID                          : 3Format                      : AC-3Format/Info                 : Audio Coding 3Mode extension              : CM (complete main)Format settings, Endianness : BigCodec ID                    : A_AC3Duration                    : 1h 55mnBit rate mode               : ConstantBit rate                    : 448 KbpsChannel(s)                  : 6 channelsChannel positions           : Front: L C R, Side: L R, LFESampling rate               : 48.0 KHzFrame rate                  : 31.250 fps (1536 spf)Compression mode            : LossyStream size                 : 371 MiB (17%)Title                       : Original | DD 5.1 @ 448 kbpsLanguage                    : EnglishDefault                     : NoForced                      : No

Text #1ID                          : 4Format                      : UTF-8Codec ID                    : S_TEXT/UTF8Codec ID/Info               : UTF-8 Plain TextLanguage                    : RussianDefault                     : NoForced                      : No

Text #2ID                          : 5Format                      : UTF-8Codec ID                    : S_TEXT/UTF8Codec ID/Info               : UTF-8 Plain TextTitle                       : FullLanguage                    : EnglishDefault                     : NoForced                      : No

Text #3ID                          : 6Format                      : UTF-8Codec ID                    : S_TEXT/UTF8Codec ID/Info               : UTF-8 Plain TextTitle                       : SDHLanguage                    : EnglishDefault                     : NoForced                      : No

Text #4ID                          : 7Format                      : UTF-8Codec ID                    : S_TEXT/UTF8Codec ID/Info               : UTF-8 Plain TextTitle                       : SDH-ColoredLanguage                    : EnglishDefault                     : NoForced                      : No

Menu00:00:00.000                : en:Chapter 100:06:40.024                : en:Chapter 200:10:34.842                : en:Chapter 300:15:15.539                : en:Chapter 400:20:03.535                : en:Chapter 500:26:01.851                : en:Chapter 600:31:15.123                : en:Chapter 700:38:54.040                : en:Chapter 800:45:24.179                : en:Chapter 900:51:00.140                : en:Chapter 1000:55:47.802                : en:Chapter 1100:59:35.613                : en:Chapter 1201:07:02.435                : en:Chapter 1301:10:49.536                : en:Chapter 1401:18:07.808                : en:Chapter 1501:22:53.677                : en:Chapter 1601:29:49.884                : en:Chapter 1701:35:09.495                : en:Chapter 1801:39:16.951                : en:Chapter 1901:48:15.113                : en:Chapter 20

piratbit.ru


Смотрите также