Барыги скачать 1 сезон


1-10 из 10 [2015 WEBRip 720p] MVO скачать через торрент

GeneralComplete name                            : E:\Films\Series\Барыги (S01,720p) [LostFilm]\Narcos.S01E01.720p.WEB.rus.LostFilm.TV.mp4Format                                   : MPEG-4Format profile                           : Base MediaCodec ID                                 : isomFile size                                : 1.68 GiBDuration                                 : 57mn 5sOverall bit rate mode                    : VariableOverall bit rate                         : 4 218 KbpsMovie name                               : ПадениеAlbum                                    : Барыги, Сезон 1Album/Performer                          : БарыгиPart/Position                            : 1Part/Total                               : 0Track name/Position                      : 1Track name/Total                         : 0Performer                                : БарыгиGenre                                    : DramaRecorded date                            : 2015Encoded date                             : UTC 2015-09-09 15:09:15Tagged date                              : UTC 2015-09-09 15:09:15Writing application                      : LostCoderCopyright                                : LostFilm.TV (c)Cover                                    : YesComment                                  : Начав с продажи первых скромных партий белого порошка, переправленных мелкими контрабандистами в Майами, никому не известный колумбийский жулик Пабло Эскобар за каких-то пару лет умудрился поставить на колени этот жадный до развлечений город.tvsh                                     : Барыгиtven                                     : 101tvsn                                     : 1tves                                     : 1rati                                     : (Binary)stik                                     : 10

VideoID                                       : 1Format                                   : AVCFormat/Info                              : Advanced Video CodecFormat profile                           : [email protected] settings, CABAC                   : NoFormat settings, ReFrames                : 4 framesCodec ID                                 : avc1Codec ID/Info                            : Advanced Video CodingDuration                                 : 57mn 5sBit rate                                 : 4 000 KbpsMaximum bit rate                         : 6 034 KbpsWidth                                    : 1 280 pixelsHeight                                   : 720 pixelsDisplay aspect ratio                     : 16:9Frame rate mode                          : ConstantFrame rate                               : 23.976 fpsColor space                              : YUVChroma subsampling                       : 4:2:0Bit depth                                : 8 bitsScan type                                : ProgressiveBits/(Pixel*Frame)                       : 0.181Stream size                              : 1.58 GiB (94%)Title                                    : Imported with GPAC 0.4.6-DEV (internal rev. 5)Writing library                          : x264 core 112 r1834 a51816aEncoding settings                        : cabac=0 / ref=3 / deblock=1:0:0 / analyse=0x3:0x113 / me=hex / subme=7 / psy=1 / psy_rd=1.00:0.00 / mixed_ref=1 / me_range=16 / chroma_me=1 / trellis=1 / 8x8dct=1 / cqm=0 / deadzone=21,11 / fast_pskip=1 / chroma_qp_offset=-2 / threads=12 / sliced_threads=0 / nr=0 / decimate=1 / interlaced=0 / constrained_intra=0 / bframes=3 / b_pyramid=2 / b_adapt=1 / b_bias=0 / direct=1 / weightb=1 / open_gop=0 / weightp=2 / keyint=250 / keyint_min=25 / scenecut=40 / intra_refresh=0 / rc_lookahead=40 / rc=abr / mbtree=1 / bitrate=4000 / ratetol=1.0 / qcomp=0.60 / qpmin=0 / qpmax=51 / qpstep=4 / vbv_maxrate=5000 / vbv_bufsize=2000 / ip_ratio=1.40 / aq=1:1.00 / nal_hrd=noneEncoded date                             : UTC 2015-09-05 14:21:01Tagged date                              : UTC 2015-09-09 15:11:06

AudioID                                       : 2Format                                   : AACFormat/Info                              : Advanced Audio CodecFormat profile                           : LCCodec ID                                 : 40Duration                                 : 57mn 5sBit rate mode                            : VariableBit rate                                 : 255 KbpsMaximum bit rate                         : 344 KbpsChannel(s)                               : 2 channelsChannel positions                        : Front: L RSampling rate                            : 48.0 KHzCompression mode                         : LossyStream size                              : 104 MiB (6%)Encoded date                             : UTC 2015-09-09 15:11:04Tagged date                              : UTC 2015-09-09 15:11:06

piratbit.ru

Нарки / Нарко / Барыги (1 сезон) (2015)

Добавлены все серии

Информация о сериале:Жанр: Драма, криминалСтрана: СШАГод выпуска: 2015Режиссер: Жозе ПадильяПродолжительность: 10 серий по 55 мин.Перевод: Русская озвучка Newstudio | LostFilm | ViruseProject | Jimmy J. | Субтитры В ролях: Вагнер Моура, Морис Комт, Джоанна Кристи, Бойд Холбрук, Педро Паскаль, Стефани Сигман, Роберто Урбина, Ана де ла Регера, Даниэль Кеннеди, Диего КатаньоОписание фильма: Премьера киноленты, основанной на реальных событиях произошла совсем недавно.Она расскажет о криминальной стороне жизни Пабло Эскобара, который был известен всему обществу, как колумбийский наркобарон. Для кого-то распространение наркотических средств – это действительно серьезное преступление, но только не для него, поскольку он всегда считал это своим повседневным делом. Одного из самых опытных агентов Мексики отправляют в Колумбию специально для того, чтобы он захватил и уничтожил наркобарона. Действие фильма происходит в начале восьмидесятых двадцатого века, то есть в те времена , когда существовала картель Медельин – известная организация, которая не только осуществляла продажу наркотиков, но также и убивала, и похищала людей, и в целом способствовала развитию терроризма в мире. Насколько далеко способен будет зайти Эскобар в своих планах? @ The-Cinema.net

Оценки зрителей: Также советуем к онлайн просмотру:

9.9

Занимательность:

10.0

Игра актеров: Зарегистрируйтесь, если не хотите видеть этот баннер!

Смотреть Нарки / Нарко / Барыги (1 сезон) онлайн:

× График выхода серий: Статус: сериал продолжается
3 сезон 10 серия Going Back to Cali 1 сен 2017, Пт  
3 сезон 9 серия Todos Los Hombres del Presidente 1 сен 2017, Пт  
3 сезон 8 серия Convivir 1 сен 2017, Пт  
3 сезон 7 серия Sin Salida 1 сен 2017, Пт  
3 сезон 6 серия Best Laid Plans 1 сен 2017, Пт  
3 сезон 5 серия MRO 1 сен 2017, Пт  
3 сезон 4 серия Checkmate 1 сен 2017, Пт  
3 сезон 3 серия Follow the Money 1 сен 2017, Пт  
3 сезон 2 серия The Cali KGB 1 сен 2017, Пт  
3 сезон 1 серия The Kingpin Strategy 1 сен 2017, Пт  
2 сезон 10 серия Al Fin Cayó! 2 сен 2016, Пт  
2 сезон 9 серия Nuestra Finca 2 сен 2016, Пт  
2 сезон 8 серия Exit El Patrón 2 сен 2016, Пт  
2 сезон 7 серия Deutschland 93 2 сен 2016, Пт  
2 сезон 6 серия Los Pepes 2 сен 2016, Пт  
2 сезон 5 серия The Enemies of My Enemy 2 сен 2016, Пт  
2 сезон 4 серия The Good, the Bad, and the Dead 2 сен 2016, Пт  
2 сезон 3 серия Our Man in Madrid 2 сен 2016, Пт  
2 сезон 2 серия Cambalache 2 сен 2016, Пт  
2 сезон 1 серия Free at Last 2 сен 2016, Пт  
1 сезон 10 серия Despegue 28 авг 2015, Пт  
1 сезон 9 серия La Catedral 28 авг 2015, Пт  
1 сезон 8 серия La Gran Mentira 28 авг 2015, Пт  
1 сезон 7 серия You Will Cry Tears of Blood 28 авг 2015, Пт  
1 сезон 6 серия Explosivos 28 авг 2015, Пт  
1 сезон 5 серия There Will Be a Future 28 авг 2015, Пт  
1 сезон 4 серия The Palace in Flames 28 авг 2015, Пт  
1 сезон 3 серия The Men of Always 28 авг 2015, Пт  
1 сезон 2 серия The Sword of Simón Bolívar 28 авг 2015, Пт  
1 сезон 1 серия Descenso 28 авг 2015, Пт  
Перевод Newstudio

Перевод LostFilm

Перевод ViruseProject

Перевод Jimmy J.

Субтитры:

Скачать торрент "Нарки / Нарко / Барыги (1 сезон)" бесплатно:

Качество: WEBRip 1080p (Что такое BDRip или DVDRip?)Видео: MPEG-4 AVC, ~ 6444 Кбит/с, 1920x1080Аудио: Аудио RU: AC3, 6 ch, 384 Кбит/с Аудио EN: AC3, 6 ch, 384 Кбит/сРазмер: 24.89 ГБПеревод: Проф. (многоголосный)

Ещё никто не оставил рецензию.

ИнформацияПосетители, находящиеся в группе Гости, не могут оставлять комментарии к данной публикации.

the-cinema.net

Нарки / Нарко / Барыги (3 сезон) (2017)

Добавлены все серии

В подборке: Мафия и гангстеры,Наркотики

Информация о сериале:Жанр: криминал, драмаСтрана: США, КолумбияГод выпуска: 2017Режиссер: Андрес Байс, Херардо Наранхо, Джозеф ВладыкаПродолжительность: 10 серий по 49 мин.Перевод: Русская озвучка LostFilm | Newstudio | Coldfilm | Gears Media | Jimmy J В ролях: Вагнер Моура, Бойд Холбрук, Педро Паскаль, Джоанна Кристи, Морис Комт, Паулина Гайтан, Хуан Мурсия, Рауль Мендес, Хорхе Монтерроса, Паулина ГарсиаОписание фильма: Сериал рассказывает историю про Пабло Эскобара , который стал миллиардером, производя и распространяя кокаина. В третьем сезоне всё начинается после смерти Эскобара. Медельин распался, но Кали, печально известный картель, ранее стоявший на втором месте после Медельина, занял первое место. Эксобар мог потратить деньги на постройку школы. Но Кали - картель без жалости. Естественно, что DEA и Кали противостоят друг другу. Бизнес картеля процветает, найдены новые рынки сбыта в США и в других местах. Подкупы чиновников? Пожалуйста. Полицейские? Уже «прикормлены». А что с президентом делать? Ай, отстегните ему бабла на выборы. И тут, ко всеобщему удивлению Гилберто Родригес Орехуэла, лидер картеля Кали, внезапно объявляет - в течение 6 месяцев картель оставит кокаиновый бизнес. После чего полностью сосредоточит свои интересы на юридических деловых интересах. Решение лидера встречает смешанные реакции внутри картеля. Инцидент, связанный с газом, угрожает уничтожить соглашение между Кали и правительством. Полковнику Мартинесу нужно уйти в отставку, так как появились ложные показания о том, что он берет взятки. @ The-Cinema.net

Оценки зрителей: Также советуем к онлайн просмотру:

10.0

Занимательность:

10.0

Игра актеров: Зарегистрируйтесь, если не хотите видеть этот баннер!

Смотреть Нарки / Нарко / Барыги (3 сезон) онлайн:

× График выхода серий: Статус: сериал продолжается
3 сезон 10 серия Going Back to Cali 1 сен 2017, Пт  
3 сезон 9 серия Todos Los Hombres del Presidente 1 сен 2017, Пт  
3 сезон 8 серия Convivir 1 сен 2017, Пт  
3 сезон 7 серия Sin Salida 1 сен 2017, Пт  
3 сезон 6 серия Best Laid Plans 1 сен 2017, Пт  
3 сезон 5 серия MRO 1 сен 2017, Пт  
3 сезон 4 серия Checkmate 1 сен 2017, Пт  
3 сезон 3 серия Follow the Money 1 сен 2017, Пт  
3 сезон 2 серия The Cali KGB 1 сен 2017, Пт  
3 сезон 1 серия The Kingpin Strategy 1 сен 2017, Пт  
2 сезон 10 серия Al Fin Cayó! 2 сен 2016, Пт  
2 сезон 9 серия Nuestra Finca 2 сен 2016, Пт  
2 сезон 8 серия Exit El Patrón 2 сен 2016, Пт  
2 сезон 7 серия Deutschland 93 2 сен 2016, Пт  
2 сезон 6 серия Los Pepes 2 сен 2016, Пт  
2 сезон 5 серия The Enemies of My Enemy 2 сен 2016, Пт  
2 сезон 4 серия The Good, the Bad, and the Dead 2 сен 2016, Пт  
2 сезон 3 серия Our Man in Madrid 2 сен 2016, Пт  
2 сезон 2 серия Cambalache 2 сен 2016, Пт  
2 сезон 1 серия Free at Last 2 сен 2016, Пт  
1 сезон 10 серия Despegue 28 авг 2015, Пт  
1 сезон 9 серия La Catedral 28 авг 2015, Пт  
1 сезон 8 серия La Gran Mentira 28 авг 2015, Пт  
1 сезон 7 серия You Will Cry Tears of Blood 28 авг 2015, Пт  
1 сезон 6 серия Explosivos 28 авг 2015, Пт  
1 сезон 5 серия There Will Be a Future 28 авг 2015, Пт  
1 сезон 4 серия The Palace in Flames 28 авг 2015, Пт  
1 сезон 3 серия The Men of Always 28 авг 2015, Пт  
1 сезон 2 серия The Sword of Simón Bolívar 28 авг 2015, Пт  
1 сезон 1 серия Descenso 28 авг 2015, Пт  
Перевод LostFilm:

Перевод Newstudio:

Перевод ColdFilm:

Перевод Gears Media:

Перевод Jimmy J:

Скачать торрент "Нарки / Нарко / Барыги (3 сезон)" бесплатно:

Качество: WEB-DLRip (720p) (Что такое BDRip или DVDRip?)Видео: MPEG-4 AVC, ~ 2400 Кбит/с, 1280x720Аудио: Русский (AC3, 2 ch, 192 Кбит/с)Размер: 10.91 GBПеревод: Любительский (двухголосый) SunshineStudio

Ещё никто не оставил рецензию.

ИнформацияПосетители, находящиеся в группе Гости, не могут оставлять комментарии к данной публикации.

the-cinema.net

2 / Серии 1-10 из 10 [2016 WEB-DL 720p] MVO [NewStudio] скачать через торрент

GeneralUnique ID                                : 194954670317159702427321999984512358957 (0x92AAE75B415DB98B99D5C7021C165A2D)Complete name                            : H:\Narcos.s02.WEB.720p.NewStudio.TV\Narcos.s02e05.WEB.720p.NewStudio.TV.mkvFormat                                   : MatroskaFormat version                           : Version 4 / Version 2File size                                : 2.49 GiBDuration                                 : 52 minOverall bit rate                         : 6 843 kb/sEncoded date                             : UTC 2016-09-19 15:48:46Writing application                      : mkvmerge v8.3.0 ('Over the Horizon') 64bitWriting library                          : libebml v1.3.1 + libmatroska v1.4.2

VideoID                                       : 1Format                                   : AVCFormat/Info                              : Advanced Video CodecFormat profile                           : [email protected] settings, CABAC                   : YesFormat settings, ReFrames                : 9 framesCodec ID                                 : V_MPEG4/ISO/AVCDuration                                 : 51 minBit rate                                 : 6 110 kb/sWidth                                    : 1 280 pixelsHeight                                   : 720 pixelsDisplay aspect ratio                     : 16:9Frame rate mode                          : ConstantFrame rate                               : 23.976 (24000/1001) FPSColor space                              : YUVChroma subsampling                       : 4:2:0Bit depth                                : 8 bitsScan type                                : ProgressiveBits/(Pixel*Frame)                       : 0.277Stream size                              : 2.21 GiB (89%)Writing library                          : x264 core 144 r2525 40bb568Encoding settings                        : cabac=1 / ref=9 / deblock=1:-3:-3 / analyse=0x3:0x133 / me=umh / subme=10 / psy=1 / psy_rd=1.00:0.00 / mixed_ref=1 / me_range=48 / chroma_me=1 / trellis=2 / 8x8dct=1 / cqm=0 / deadzone=21,11 / fast_pskip=1 / chroma_qp_offset=-2 / threads=6 / lookahead_threads=1 / sliced_threads=0 / nr=0 / decimate=1 / interlaced=0 / bluray_compat=0 / constrained_intra=0 / bframes=8 / b_pyramid=2 / b_adapt=2 / b_bias=0 / direct=3 / weightb=1 / open_gop=0 / weightp=2 / keyint=250 / keyint_min=23 / scenecut=40 / intra_refresh=0 / rc=crf / mbtree=0 / crf=17.5 / qcomp=0.60 / qpmin=0 / qpmax=69 / qpstep=4 / ip_ratio=1.30 / pb_ratio=1.20 / aq=3:0.80Language                                 : EnglishDefault                                  : YesForced                                   : No

Audio #1ID                                       : 2Format                                   : AC-3Format/Info                              : Audio Coding 3Mode extension                           : CM (complete main)Format settings, Endianness              : BigCodec ID                                 : A_AC3Duration                                 : 52 minBit rate mode                            : ConstantBit rate                                 : 384 kb/sChannel(s)                               : 6 channelsChannel positions                        : Front: L C R, Side: L R, LFESampling rate                            : 48.0 kHzFrame rate                               : 31.250 FPS (1536 spf)Compression mode                         : LossyStream size                              : 143 MiB (6%)Title                                    : NewStudio.TVLanguage                                 : RussianDefault                                  : YesForced                                   : No

Audio #2ID                                       : 3Format                                   : AC-3Format/Info                              : Audio Coding 3Mode extension                           : CM (complete main)Format settings, Endianness              : BigCodec ID                                 : A_AC3Duration                                 : 52 minBit rate mode                            : ConstantBit rate                                 : 384 kb/sChannel(s)                               : 6 channelsChannel positions                        : Front: L C R, Side: L R, LFESampling rate                            : 48.0 kHzFrame rate                               : 31.250 FPS (1536 spf)Compression mode                         : LossyStream size                              : 143 MiB (6%)Language                                 : EnglishDefault                                  : NoForced                                   : No

piratbit.ru

2 1-10 серии из 10 [2016 WEBRip ] MVO [NewStudio] скачать через торрент

Раздают: 2 [ 0 KB/s ]
Размер: 6.84 GB | Добавлен: 1 год 1 мес. назад | Торрент скачан:496 раз
Реклама Дарим 3000 рублей за регистрацию, не упусти свой шанс получить шикарный бонус!!!

19-09-2016 21:18 Нарки Скачать торрент  

Нарки / Нарко / Барыги / Narcos

«Охота за Пабло продолжаеться» 2 сезон (1-10 серии из 10) Год выпуска: 2016Страна: USAЖанр: криминал, драма, триллерПродолжительность: 10 х ~ 00:52:00Перевод: Профессиональный (многоголосый) Субтитры: английский вшитые (на испанскую речь)

Режиссер: Жозе Падилья, Крис Бренкето

В ролях:

Вагнер Моура, Морис Комт, Джоанна Кристи, Бойд Холбрук, Педро Паскаль, Стефани Сигман, Роберто Урбина,Ана де ла Регера, Даниэль Кеннеди, Диего Катаньо

Описание:

Преступную деятельность будущий влиятельнейший наркобарон Колумбии Пабло Эскобар начал ещё в детстве с воровства и мошенничества, после он перешёл на рэкет, вооружённые налёты и похищение людей. Когда вокруг Пабло сформировалась мощная группировка он решил расширяться в сторону самого перспективного и бездонного рынка - поставки колумбийского кокаина в Соединённые Штаты, где основной проблемой Управления по борьбе с наркотиками до этого момента были лишь добродушные хиппи с их марихуаной.

Американские нарки в кратчайшие сроки озолотили юного Пабло и дали ему неограниченную власть на родине, где наркобарон, благодаря своим вложениям в местную экономику, стал настоящим героем. Вместе с несколькими влиятельными коллегами Эскобар создаёт Медельинский кокаиновый картель, закупает всевозможную технику для контрабанды своей продукции на север и открывает множество лабораторий по производству белого порошка в безлюдных джунглях. Держа в страхе политиков Колумбии Пабло всегда добивался желаемого любой ценой, предоставляя потенциальным жертвам выбор между получением взятки и пулей в голову.

Качество: WEBRipФормат: AVI Видео кодек: XviDАудио кодек: MP3

Видео: 720x400 (1.80:1), 23.976 fps, XviD MPEG-4 ~1488 kbps avg, 0.22 bit/pixelАудио#1: RUS:48 kHz, MPEG Layer 3, 2 ch, ~128.00 kbps avgАудио#2: ENG:48 kHz, MPEG Layer 3, 2 ch, ~128.00 kbps avg

Скачать Нарки через торрент http://pic1.pb.wtf/images/10/7mnpf.jpg Скачать фильм Нарки через торрент бесплантно в хорошем качестве Описание: Преступную деятельность будущий влиятельнейший наркобарон Колумбии Пабло Эскобар начал ещё в детстве с воровства и ... 2016-09-19 21:18 9.9 10 29

Loading...

Loading...

Последний раз редактировалось: bober100 (2016-09-24 05:52), всего редактировалось 3 раз(а)

Рекламный пират

20-09-2016 04:09 Нарки Скачать торрент  

Всем приятного просмотра)

20-09-2016 07:06 Нарки Скачать торрент  

За золото спасибо)

20-09-2016 13:22 Нарки Скачать торрент  

наконец-то 2 сезон от ньюстудио)

20-09-2016 13:24 Нарки Скачать торрент  

Impostor09 писал(а):

наконец-то 2 сезон от ньюстудио)

Сам ждал)

22-09-2016 23:15 Нарки Скачать торрент  

рассинхрон дикий в 5 серии

22-09-2016 23:46 Нарки Скачать торрент  

piece of shit, я еще не смотрел

24-09-2016 00:17 Нарки Скачать торрент  

да 5 серия ужасная, рассинхрон дикий

24-09-2016 00:22 Нарки Скачать торрент  

в 5-ой серии два раза пустили рекламу по русской дорожке, в итоге - рассинхрон на 32(!) секунды. на сайте NewStudio написано

Pекламный агент PB

24-09-2016 00:24 Нарки Скачать торрент  

bober100, обнови 5 серию, там уже выложили исправленную

24-09-2016 17:00 Нарки Скачать торрент  

Impostor09 писал(а):

два раза пустили рекламу по русской дорожке

реклама-зло

28-09-2016 19:42 Нарки Скачать торрент  

поправили? лететь 10 часов, думаю скачать все сезоны

17-10-2016 17:06 Нарки Скачать торрент  

Будьте внимательны, пятую серию так и не перезалили :(

22-11-2016 07:16 Нарки Скачать торрент  

iEve1 писал(а):

Будьте внимательны, пятую серию так и не перезалили :(

5 серия рассинхрон обломайтунг

Дорогой пользователь! Огромная просьба, поблагодарите релизера, оцените раздачу и оставьте свои комментарий, если Вы скачали Нарки через торрент бесплатно! Внесите свою лепту в развитие PiratBit!

Комментировать посты могут только пользователи прошедшие не сложную регистрацию

Нарки через торрент Скачать бесплатно Нарки Нарки скачать торрент Нарки смотреть онлайн Cкачать фильм Нарки бесплатно Нарки скачать торрент в хорошем качестве Нарки смотреть онлайн бесплатно в хорошем качестве

Вы не можете начинать темыВы не можете отвечать на сообщенияВы не можете редактировать свои сообщенияВы не можете удалять свои сообщенияВы не можете голосовать в опросахВы не можете прикреплять файлы к сообщениямВы можете скачивать файлы

piratbit.ru

3 / Серии 1-10 из 10 [2017 WEB-DLRip] MVO [NewStudio] скачать через торрент

Раздают: 6 [ 0.1 KB/s ] Качают: 3 [ 0 KB/s ]
Размер: 6.84 GB | Добавлен: 1 мес. 22 д. назад | Торрент скачан:142 раза
Реклама Дарим 3000 рублей за регистрацию, не упусти свой шанс получить шикарный бонус!!!

03-09-2017 23:39 Нарки Скачать торрент  

Нарки / Нарко / Барыги / Narcos
  • Год выпуска: 2017
  • Страна: США
  • Жанр: драма, криминал
  • Продолжительность: ~00:54:00 (Серия)
  • Перевод: Профессиональный многоголосый закадровый
  • Режиссер: Андрес Байс, Фернандо Коимбра, Гильермо Наварро
  • В ролях: Вагнер Моура (Pablo Escobar), Морис Комт (Horatio Carrillo), Джоанна Кристи (Connie Murphy), Бойд Холбрук (Steve Murphy), Педро Паскаль (Javier Peña), Стефани Сигман (Valeria Velez), Роберто Урбина (Fabio), Ана де ла Регера (Elisa), Даниэль Кеннеди (Ambassador Noonan), Диего Катаньо (La Quica), Хорхе А. Хименес (Poison), Паулина Гайтан (Tata Escobar)
  • Описание: picХроника криминальной жизни колумбийского наркобарона Пабло Эскобара.Новый противник Хавьера Пенья очень серьезный и более проворный и образованней в сравнении с предыдущим. Потому что в случае Медельинского картеля — это были не образованные, но наделены хорошим логическим мышление люди, то в случае с Калийским картелем все совершенно противоположно. Во главе Калийского картеля состоят только образованные и очень успешные люди, очень многие из них хорошо знакомы с бухгалтерией, так как имели большой опыт работы бухгалтерами, знающими как правильно и без особых проблем скрыть лишних доход и правильно провести это по официальным документам.
  • Рейтинг:
  • Качество: WEB-DLRip
  • Формат: :AVI
  • Видео кодек: XviD
  • Аудио кодек: MP3
  • Видео: 1333 Кбит/сек, 720*400 (16:9), в 23,976 (24000/1001) кадра/сек, MPEG-4 Visual (XviD)
  • Аудио №1: Русский 128 Кбит/сек, 48,0 КГц, 2 канала, MPEG Audio (MP3)
  • Аудио №2: Английский 128 Кбит/сек, 48,0 КГц, 2 канала, MPEG Audio (MP3)

    Внимание! Раздача ведётся путём добавления новых серий; при каждом добавлении создаётся новый торрент. Чтобы начать докачку новой серии, пользователям необходимо сделать следующее:(1) остановить скачивание,(2) удалить старый торрент у себя из клиента (старые серии удалять не надо),(3) скачать новый торрент и запустить его у себя в клиенте вместо старого, при этом указать клиенту путь в старую папку куда и должно происходить скачивание новых серий.Ваш клиент при этом должен произвести хеширование (проверку) старой папки (если не производит сам - помогите ему сделать это), и будет докачивать только те серии которых у вас ещё нет. Старые серии при этом не удаляются, а продолжают раздаваться!Eсли вы уже удалили старые серии, то предотвратить повторную закачку старых серий можно, отжав галочку в соответствующих местах при запуске нового торрента. По возможности, желательно не удалять старые серии как можно дольше чтобы релизёр не столько продолжал раздавать старые серии, а смог сконцентрироваться на новых.

    ОбщееПолное имя : F:\Narcos.s03.WEBDLRip.NewStudio.TV\Narcos.s03e05.WEBDLRip.NewStudio.TV.aviФормат : AVIФормат/Информация : Audio Video InterleaveРазмер файла : 700 МбайтПродолжительность : 1 ч. 1 м.Общий поток : 1603 Кбит/секПрограмма кодирования : VirtualDubMod 1.5.10.2 (build 2540/release)Библиотека кодирования : VirtualDubMod build 2540/release

    ВидеоИдентификатор : 0Формат : MPEG-4 VisualПрофиль формата : Advanced [email protected]Параметр BVOP формата : 2Параметр QPel формата : ДаПараметр GMC формата : Без точки переходаПараметр матрицы формата : Default (MPEG)Режим смешивания : Сжатый битовый потокИдентификатор кодека : XVIDИдентификатор кодека/Подсказка : XviDПродолжительность : 1 ч. 1 м.Битрейт : 1333 Кбит/секШирина : 720 пикселейВысота : 400 пикселейСоотношение сторон : 16:9Частота кадров : 23,976 (24000/1001) кадра/секЦветовое пространство : YUVСубдискретизация насыщенности : 4:2:0Битовая глубина : 8 битТип развёртки : ПрогрессивнаяМетод сжатия : С потерямиБит/(Пиксели*Кадры) : 0.193Размер потока : 582 Мбайт (83%)Библиотека кодирования : XviD 73

    Аудио #1Идентификатор : 1Формат : MPEG AudioВерсия формата : Version 1Профиль формата : Layer 3Режим : Joint stereoРасширение режима : MS StereoИдентификатор кодека : 55Идентификатор кодека/Подсказка : MP3Продолжительность : 1 ч. 1 м.Вид битрейта : ПостоянныйБитрейт : 128 Кбит/секКаналы : 2 каналаЧастота : 48,0 КГцМетод сжатия : С потерямиРазмер потока : 55,9 Мбайт (8%)Выравнивание : Соединение по промежуткамПродолжительность промежутка : 42 мс. (1,00 видеокадр)Время предзагрузки промежутка : 504 мс.

    Аудио #2Идентификатор : 2Формат : MPEG AudioВерсия формата : Version 1Профиль формата : Layer 3Режим : Joint stereoИдентификатор кодека : 55Идентификатор кодека/Подсказка : MP3Продолжительность : 1 ч. 1 м.Вид битрейта : ПостоянныйБитрейт : 128 Кбит/секКаналы : 2 каналаЧастота : 48,0 КГцМетод сжатия : С потерямиРазмер потока : 55,9 Мбайт (8%)Выравнивание : Соединение по промежуткамПродолжительность промежутка : 42 мс. (1,00 видеокадр)Время предзагрузки промежутка : 504 мс.Библиотека кодирования : LAME3.99rНастройки программы : -m j -V 4 -q 2 -lowpass 17 -b 128

    ВНИМАНИЕ! В сериале присутствуют сцены сексуального характера, жестокости и ненормативная лексика!!!!!!Скриншоты:                      
  • Раздача ведётся путём добавления новых серий. Добавлена 10 серия (05.09.2016).Просьба перекачать торрент файл. Скачать Нарки через торрент http://pic1.pb.wtf/images/11/vf2v9.jpg Скачать фильм Нарки через торрент бесплантно в хорошем качестве Описание: picХроника криминальной жизни колумбийского наркобарона Пабло Эскобара.Новый противник Хавьера Пенья очень серьезный и более ... 2017-09-04 23:21 9.9 10 8

    Loading...

    Loading...

    Рекламный пират

    Дорогой пользователь! Огромная просьба, поблагодарите релизера, оцените раздачу и оставьте свои комментарий, если Вы скачали Нарки через торрент бесплатно! Внесите свою лепту в развитие PiratBit!

    Комментировать посты могут только пользователи прошедшие не сложную регистрацию

    Нарки через торрент Скачать бесплатно Нарки Нарки скачать торрент Нарки смотреть онлайн Cкачать фильм Нарки бесплатно Нарки скачать торрент в хорошем качестве Нарки смотреть онлайн бесплатно в хорошем качестве

    Вы не можете начинать темыВы не можете отвечать на сообщенияВы не можете редактировать свои сообщенияВы не можете удалять свои сообщенияВы не можете голосовать в опросахВы не можете прикреплять файлы к сообщениямВы можете скачивать файлы

    piratbit.ru

    Нарки / Нарко / Барыги (2 сезон) (2016)

    Добавлены все серии

    В подборке: Наркотики

    Информация о сериале:Жанр: криминал, драмаСтрана: СШАГод выпуска: 2016Режиссер: Андрес Байс, Джозеф Владыка, Херардо НаранхоПродолжительность: 10 серий по 49 мин.Перевод: Русская озвучка LostFilm | Newstudio | IdeaFilm | Coldfilm | Jimmy J. В ролях: Вагнер Моура, Бойд Холбрук, Педро Паскаль, Джоанна Кристи, Морис Комт, Паулина Гайтан, Диего Катаньо, Jasón Chad, Даниэль Кеннеди, Ричард Т. ДжонсОписание фильма: Главный герой сериала – Пабло Эскобар, легендарный король кокаина, житель Колумбии. В основе картины лежат реальные события. Итак, перед вами Медельинский картель, который занят тем, что сбывает наркотики. Кровь и теракты, хищения и преступные деяния – вот что на счету у компании. Пока колумбийские власти в 1993 году не уничтожили картель, он был очень могущественен. Военные предпринимают массу усилий, чтобы заключить Пабло под стражу. Но его семья воссоединяется, а враги проявляют беспокойство. Стиву и Конни приходится бороться за безопасность. Тата сталкивается с неприятностями. Пабло делают заманчивое предложение . Что же он ответит на него? Тем временем Стив и Хавьер должны встретить своего нового босса. @ The-Cinema.net

    Оценки зрителей: Также советуем к онлайн просмотру:

    10.0

    Занимательность:

    10.0

    Игра актеров: Зарегистрируйтесь, если не хотите видеть этот баннер!

    Смотреть Нарки / Нарко / Барыги (2 сезон) онлайн:

    × График выхода серий: Статус: сериал продолжается
    3 сезон 10 серия Going Back to Cali 1 сен 2017, Пт  
    3 сезон 9 серия Todos Los Hombres del Presidente 1 сен 2017, Пт  
    3 сезон 8 серия Convivir 1 сен 2017, Пт  
    3 сезон 7 серия Sin Salida 1 сен 2017, Пт  
    3 сезон 6 серия Best Laid Plans 1 сен 2017, Пт  
    3 сезон 5 серия MRO 1 сен 2017, Пт  
    3 сезон 4 серия Checkmate 1 сен 2017, Пт  
    3 сезон 3 серия Follow the Money 1 сен 2017, Пт  
    3 сезон 2 серия The Cali KGB 1 сен 2017, Пт  
    3 сезон 1 серия The Kingpin Strategy 1 сен 2017, Пт  
    2 сезон 10 серия Al Fin Cayó! 2 сен 2016, Пт  
    2 сезон 9 серия Nuestra Finca 2 сен 2016, Пт  
    2 сезон 8 серия Exit El Patrón 2 сен 2016, Пт  
    2 сезон 7 серия Deutschland 93 2 сен 2016, Пт  
    2 сезон 6 серия Los Pepes 2 сен 2016, Пт  
    2 сезон 5 серия The Enemies of My Enemy 2 сен 2016, Пт  
    2 сезон 4 серия The Good, the Bad, and the Dead 2 сен 2016, Пт  
    2 сезон 3 серия Our Man in Madrid 2 сен 2016, Пт  
    2 сезон 2 серия Cambalache 2 сен 2016, Пт  
    2 сезон 1 серия Free at Last 2 сен 2016, Пт  
    1 сезон 10 серия Despegue 28 авг 2015, Пт  
    1 сезон 9 серия La Catedral 28 авг 2015, Пт  
    1 сезон 8 серия La Gran Mentira 28 авг 2015, Пт  
    1 сезон 7 серия You Will Cry Tears of Blood 28 авг 2015, Пт  
    1 сезон 6 серия Explosivos 28 авг 2015, Пт  
    1 сезон 5 серия There Will Be a Future 28 авг 2015, Пт  
    1 сезон 4 серия The Palace in Flames 28 авг 2015, Пт  
    1 сезон 3 серия The Men of Always 28 авг 2015, Пт  
    1 сезон 2 серия The Sword of Simón Bolívar 28 авг 2015, Пт  
    1 сезон 1 серия Descenso 28 авг 2015, Пт  
    Перевод LostFilm:

    Перевод Newstudio:

    Перевод IdeaFilm:

    Перевод ColdFilm:

    Перевод Jimmy J:

    Скачать торрент "Нарки / Нарко / Барыги (2 сезон)" бесплатно:

    Качество: WEBRip 720p (Что такое BDRip или DVDRip?)Видео: ~ 6000 kb/s, 1280x720Аудио: AC3, 6 ch, 384 kbpsРазмер: 24.92 GBПеревод: профессиональный (многоголосый, закадровый) - NewStudio

    Ещё никто не оставил рецензию.

    ИнформацияПосетители, находящиеся в группе Гости, не могут оставлять комментарии к данной публикации.

    the-cinema.net


    Смотрите также