100 2 сезон 2 скачать


Сотня (2 сезон) / The 100 скачать сериал торрент 2014 -

hokit.ru

Коротко о сериале "Сотня (2 сезон)" - События в сериале начинают разворачиваться по прошествии девяносто семи лет после того как всю цивилизацию уничтожила страшная атомная война. Высоко в космосе на орбите Земли летает большой космический корабль, именно здесь находятся те, кто выжил после страшной катастрофы. Они единственные кто пережил этот ужасный катаклизм который устроило человечество. Именно с этого последнего пристанища людей на Землю отправляют космический челнок на котором находятся сто малолетних преступников…

Добавлена 16 серия (Lostfilm), 16 серия (Baibako), 16 серия (Alexfilm), 16 серия (Coldfilm) из 16.

Сотня

Оригинальное название The 100
Сериал выпущен: 2014
Страна (кинокомпания): США
Pежиссер: Дин Уайт, Майрзи Алмас, Мэтт Барбер
Сценарий сериала: Касс Морган, Джейсон Ротенберг, Трэйси Белломо
Продюсер сериала: Кира Снайдер, Дин Уайт, Тим Скэнлэн
Оператор: Натаниель Гудман
Композитор: Марк Доэ, Эван Фрэнкфорт, Лиз Фэир
Художники: Мэттью Баджон, Дастин Фаррелл, Андреа Френч
Монтаж: Мэтт Барбер, Люень Х. Ву, Барбара Герард
Жанр сериала: фантастика, драма
Премьера (мир): 19 марта 2014
премьера (Pоссия):
продолжительность60 мин
В главных ролях:
Девон Бостик
Исайя Вашингтон
Генри Йен Кьюсик
Пейдж Турко
Линдси Морган
Томас МакДонелл
Боб Морли
Мари Авгеропулос
Элайза Тейлор
и другие ...

Трейлер фильма:

 

Cериал Сотня (2 сезон) / The 100 скачать торрент - новинка кино 2014

Скачать файлы .torrent Сотня (2 сезон) (сериал)

на сайте Вы можете получить ссылку на торрент файлы или скачать сами торрент файлы, в которых находится информация о местонахождении фильмов, сериалов у пользователей.

В сериале "Сотня (2 сезон)" - спустя 97 лет после ядерной войны 100 малолетних преступников отправляют в прошлое для восстановления человечества



Параметры: 16.01.2016 , Профессиональный (многоголосый, закадровый) - LostFilm], 41,06 Гб -

Формат: WEB-DL (720p), MKV, AVC, AC3, размер файла: 41,06 ГбВидео: 1280x720, AVC - ~ 4000 Кбит/сАудио: Русский: AC3, 2 канала, 384 Кбит/с / Английский: AC3, 2 канала, 384 Кбит/сПеревод (озвучивание): Профессиональный (многоголосый, закадровый) - LostFilm

Параметры: 28.09.2015 WEB-DLRip 720p | LostFilm, 41,06 Гб

Формат: WEB-DLRip 720p, MKV, AVC, AC3, размер файла: 41,06 ГбВидео: 1280x718, AVC - ~ 4000 Кбит/сАудио: Русский: AC3, 6 каналов, 384 Кбит/сПеревод (озвучивание): Профессиональный (многоголосый, закадровый) - LostFilm

Параметры: 13.03.2015 , Профессиональный (многоголосый, закадровый) - LostFilm], 28,54 Гб -

Формат: WEB-DLRip (1080p), MKV, AVC, AC3, размер файла: 28,54 ГбВидео: 1920x1080, AVC - ~ 5000 Кбит/сАудио: Русский: AC3, 2 канала, 384 Кбит/с / Английский: AC3, 2 канала, 384 Кбит/сПеревод (озвучивание): Профессиональный (многоголосый, закадровый) - LostFilm

Как скачать (докачать) одну серию из торрента

1. В броузере (для uTorrent, FlashGet)

- Нажмите кнопку скачать (или на ссылку), в окне для сохранения (запуска) файла проверьте выбранную программу по умолчанию (uTorrent, FlashGet и пр.), нажмите "Открыть" - После закачки торрент файла на экране откроется окно, которое содержит список серий в пакете - Если списка нет, то найдите кнопку (две галочки вниз), которая включает сведения о торренте в расширенном режиме - Вы можете путем установки или снятия галочки у каждой серии выбрать необходимые Вам серии для скачивания - Список может быть большим, поэтому прокрутите окно до конца списка или вначале отмените выбор всех, а затем выбирайте нужные серии по одной.

2. В самом торрент-клиенте

- Остановите скачивание - Удалите старый торрент файл, ранее принятые серии удалять не следует - Скачайте новый торрент файл и запустите его для скачивания, указав при этом ту папку, где уже находятся ранее принятые серии - Торрент клиент проведет хеширование файлов и докачает недостающие - Если ранее принятые серии уже удалены, то необходимо снять галочки у соответствующих серий при запуске нового торрента

Скачать Сотня (2 сезон), The 100, сериал бесплатно скачать торрент, фантастика, драма, новинка кино

 

2 / Серии 1-16 из 16 [2014 WEB-DLRip] MVO [BaibaKo] скачать через торрент

piratbit.ru

Раздают: 1 [ 2 KB/s ]
Размер: 9.14 GB | Добавлен: 2 года 7 мес. назад | Торрент скачан:932 раза
Реклама Дарим 3000 рублей за регистрацию, не упусти свой шанс получить шикарный бонус!!!

24-10-2014 00:56 Сотня Скачать торрент  

Сотня / The 100«Выживание не то, кто вы есть. Это то кем вы станете»
  • Год выпуска: 2014
  • Страна: США
  • Жанр: фантастика, драма
  • Продолжительность: 00:42:32 (Серия)
  • Перевод: Профессиональный многоголосый закадровый [BaibaKo]
  • Режиссер: Дин Уайт / Dean White, Майрзи Алмас / Mairzee Almas, Мэтт Барбер / Matt Barber
  • В ролях: Элайза Тейлор (Clarke), Мари Авгеропулос (Octavia), Боб Морли (Bellamy Blake), Томас МакДонелл (Finn), Линдси Морган (Raven), Пейдж Турко (Abby), Генри Йен Кьюсик (Kane), Исайя Вашингтон (Chancellor Jaha), Девон Бостик (Jasper), Кристофер Ларкин (Monty), Рики Уиттл (Grounder), Ричард Хэрмон (John)
  • Описание: События в сериале начинают разворачиваться по прошествии девяносто семи лет после того, как всю цивилизацию уничтожила страшная атомная война.Высоко в космосе на орбите Земли летает большой космический корабль, где находятся те, кто выжил после страшной катастрофы. Именно с этого последнего пристанища людей на Землю отправляют космический челнок, на котором находятся сто малолетних преступников...
  • Рейтинг:
  • Качество: WEB-DLRip
  • Формат: :AVI
  • Видео кодек: XviD
  • Аудио кодек: MP3
  • Видео: 720x400 (16:9), 1506 kbps, 23,976 fps, 0,218 bpp
  • Аудио №1: 2.0 / 48 kHz / 192 kbps
  • Аудио №2: 2.0 / 48 kHz / 192 kbps
  • Релиз от: GEKADOL

    Код:

    Внимание! Раздача ведётся путём добавления новых серий; при каждом добавлении создаётся новый торрент. Чтобы начать докачку новой серии, пользователям необходимо сделать следующее:(1) остановить скачивание,(2) удалить старый торрент у себя из клиента (старые серии удалять не надо),(3) скачать новый торрент и запустить его у себя в клиенте вместо старого, при этом указать клиенту путь в старую папку куда и должно происходить скачивание новых серий.Ваш клиент при этом должен произвести хеширование (проверку) старой папки (если не производит сам - помогите ему сделать это), и будет докачивать только те серии которых у вас ещё нет. Старые серии при этом не удаляются, а продолжают раздаваться!Eсли вы уже удалили старые серии, то предотвратить повторную закачку старых серий можно, отжав галочку в соответсвующих местах при запуске нового торрента. По возможности, желательно не удалять старые серии как можно дольше чтобы релизёр не столько продолжал раздавать старые серии, а смог сконцентрироваться на новых.

    Код:

    GeneralComplete name                            : I:\Сотня (S02) bbk\The.100.s02e01.WEB-DLRip.XviD.Rus.Eng.BaibaKo.tv.aviFormat                                   : AVIFormat/Info                              : Audio Video InterleaveFile size                                : 580 MiBDuration                                 : 42mn 32sOverall bit rate                         : 1 905 KbpsWriting application                      : VirtualDubMod 1.5.10.2 (build 2540/release)Writing library                          : VirtualDubMod build 2540/release

    VideoID                                       : 0Format                                   : MPEG-4 VisualFormat profile                           : Advanced [email protected] settings, BVOP                    : 2Format settings, QPel                    : NoFormat settings, GMC                     : No warppointsFormat settings, Matrix                  : Default (H.263)Codec ID                                 : XVIDCodec ID/Hint                            : XviDDuration                                 : 42mn 32sBit rate                                 : 1 507 KbpsWidth                                    : 720 pixelsHeight                                   : 400 pixelsDisplay aspect ratio                     : 16:9Frame rate                               : 23.976 fpsColor space                              : YUVChroma subsampling                       : 4:2:0Bit depth                                : 8 bitsScan type                                : ProgressiveCompression mode                         : LossyBits/(Pixel*Frame)                       : 0.218Stream size                              : 459 MiB (79%)Writing library                          : XviD 1.2.1 (UTC 2008-12-04)

    Audio #1ID                                       : 1Format                                   : MPEG AudioFormat version                           : Version 1Format profile                           : Layer 3Mode                                     : Joint stereoMode extension                           : MS StereoCodec ID                                 : 55Codec ID/Hint                            : MP3Duration                                 : 42mn 32sBit rate mode                            : ConstantBit rate                                 : 192 KbpsChannel(s)                               : 2 channelsSampling rate                            : 48.0 KHzCompression mode                         : LossyStream size                              : 58.4 MiB (10%)Alignment                                : Aligned on interleavesInterleave, duration                     : 42 ms (1.00 video frame)Interleave, preload duration             : 504 msWriting library                          : LAMEUU

    Audio #2ID                                       : 2Format                                   : MPEG AudioFormat version                           : Version 1Format profile                           : Layer 3Mode                                     : Joint stereoMode extension                           : MS StereoCodec ID                                 : 55Codec ID/Hint                            : MP3Duration                                 : 42mn 32sBit rate mode                            : ConstantBit rate                                 : 192 KbpsChannel(s)                               : 2 channelsSampling rate                            : 48.0 KHzCompression mode                         : LossyStream size                              : 58.4 MiB (10%)Alignment                                : Aligned on interleavesInterleave, duration                     : 42 ms (1.00 video frame)Interleave, preload duration             : 504 ms

    Скриншоты:                 
  • Раздача ведётся путём добавления новых серий. Добавлена 16 заключительная серия (13.03.2015).Просьба перекачать торрент файл.
    KGEKADOL писал(а):

    Что касается даты премьеры 3-го сезона «Сотни», то ориентироваться можно на осень 2015 года.

    Скачать Сотня через торрент http://pic1.pb.wtf/images/9/w1ud9.jpg Скачать фильм Сотня через торрент бесплантно в хорошем качестве Описание: События в сериале начинают разворачиваться по прошествии девяносто семи лет после того, как всю цивилизацию уничтожила страшная ... 2015-03-13 01:52 9.7 10 74

    Loading...

    Loading...

    Последний раз редактировалось: GEKADOL (2015-03-13 01:52), всего редактировалось 19 раз(а)

    Рекламный пират

    24-10-2014 05:56 Сотня Скачать торрент  

    Ура дождались.

    24-10-2014 12:01 Сотня Скачать торрент  

    Atenas писал(а):

    Ура дождались.

    24-10-2014 15:58 Сотня Скачать торрент  

    Ух, продолжение

    21-11-2014 15:18 Сотня Скачать торрент  

    Сотня (Небесная). 2 сезон. Ноябрь 2014г. Символично!

    12-12-2014 18:07 Сотня Скачать торрент  

    Малолеткам как обычно лет 30 на вид?

    18-12-2014 08:14 Сотня Скачать торрент  

    Ребята когда новые серии выходят ?

    20-12-2014 04:18 Сотня Скачать торрент  

    fanta86 писал(а):

    Ребята когда новые серии выходят ?

    Раз в неделю!

    29-12-2014 21:44 Сотня Скачать торрент  

    уже 2 недели прошло , а серии нету

    Pекламный агент PB

    02-01-2015 12:38 Сотня Скачать торрент  

    ууууииииииииииииииии

    05-01-2015 16:02 Сотня Скачать торрент  

    добавьте скорости)

    21-01-2015 17:03 Сотня Скачать торрент  

    Эту шляпу на 10 лет растянули что ли?

    30-01-2015 11:47 Сотня Скачать торрент  

    офигенный сириал , и да прикалывает что малолеткам по 30леет:D

    13-02-2015 08:32 Сотня Скачать торрент  

    Хватит срач разводить, не нравиться не смотрите кто вас заставляет то?

    20-02-2015 05:09 Сотня Скачать торрент  

    vampir2011 писал(а):

    Хватит срач разводить, не нравиться не смотрите кто вас заставляет то?

    20-02-2015 16:29 Сотня Скачать торрент  

    voinvechnosti писал(а):

    офигенный сириал , и да прикалывает что малолеткам по 30леет:D

    ну да 32 тоже малолетки))) хорошо выглядим видимо))

    24-02-2015 16:34 Сотня Скачать торрент  

    Было б здорово, список серий добавить. В остальном, зачет.

    Pекламный агент PB

    07-03-2015 00:25 Сотня Скачать торрент  

    15 серия загрузилась с неизвестным расширением! проверьте плиз!

    12-03-2015 18:01 Сотня Скачать торрент  

    18-03-2015 10:19 Сотня Скачать торрент  

    01-04-2015 22:15 Сотня Скачать торрент  

    какого название торрента меняешь? *?:

    21-04-2015 13:34 Сотня Скачать торрент  

    в 16 серии с озвучкой что-то нето..

    Дорогой пользователь! Огромная просьба, поблагодарите релизера, оцените раздачу и оставьте свои комментарий, если Вы скачали Сотня через торрент бесплатно! Внесите свою лепту в развитие PiratBit!

    Комментировать посты могут только пользователи прошедшие не сложную регистрацию

    Сотня через торрент Скачать бесплатно Сотня Сотня скачать торрент Сотня смотреть онлайн Cкачать фильм Сотня бесплатно Сотня скачать торрент в хорошем качестве Сотня смотреть онлайн бесплатно в хорошем качестве

    Вы не можете начинать темыВы не можете отвечать на сообщенияВы не можете редактировать свои сообщенияВы не можете удалять свои сообщенияВы не можете голосовать в опросахВы не можете прикреплять файлы к сообщениямВы можете скачивать файлы

    2 / Серии 1-16 из 16 [2014 WEB-DLRip1080р MVO] [LostFilm] скачать через торрент

    piratbit.ru

    Размер: 28.54 GB | Добавлен: 2 года 7 мес. назад | Торрент скачан:612 раз
    Реклама Дарим 3000 рублей за регистрацию, не упусти свой шанс получить шикарный бонус!!!

    25-10-2014 03:38 Сотня Скачать торрент  

    Сотня / The 100«Выживание не то, кто вы есть. Это то кем вы станете»
  • Год выпуска: 2014
  • Страна: США
  • Жанр: фантастика, драма
  • Продолжительность: 00:42:41 (Серия)
  • Перевод: Профессиональный многоголосый закадровый [LostFilm]
  • Режиссер: Дин Уайт / Dean White, П.Дж. Пеше / P.J. Pesce, Майрзи Алмас / Mairzee Almas
  • В ролях: Элайза Тейлор (Clarke Griffin), Мари Авгеропулос (Octavia Blake), Боб Морли (Bellamy Blake), Томас МакДонелл (Finn Collins), Линдси Морган (Raven Reyes), Пейдж Турко (Dr. Abigail Griffin), Генри Йен Кьюсик (Councillor Marcus Kane), Исайя Вашингтон (Chancellor Thelonious Jaha), Девон Бостик (Jasper Jordan), Кристофер Ларкин (Monty Green), Рики Уиттл (Lincoln), Ричард Хэрмон (John Murphy)
  • Описание: Экранизация одноименного романа Касс Морган. После ста лет проведенных на орбите по окончании ядерной войны, руководство космической станции из-за перенаселения решает в качестве подопытных крыс отправить сотню малолетних подростков обратно на Землю, чтобы выяснить пригодна она для выживания или нет... Приземлившиеся 98 человек сразу делятся на две группировки - "умных и красивых" - пытающихся выжить и быдло. Первых меньшинство и они ломятся искать старый бункер с консервами, пока вторые радуются свежеприобретенной свободе на голодный желудок. Земля оправилась от войны, но не полностью - по ней бродят звери-мутанты, в реках обитают опасные хищники, а в лесах - кое что пострашнее...
  • Рейтинг:
  • Качество: WEB-DLRip1080р
  • Формат: :MKV
  • Видео кодек: AVC
  • Аудио кодек: AC3
  • Видео: 1920x1080 (16:9), 5242 kbps, 23,976 fps, 0,105 bpp
  • Аудио №1: 2.0 / 48 kHz / 384 kbps / 16 bit
  • Аудио №2: 2.0 / 48 kHz / 384 kbps / 16 bit
  • Релиз от: GEKADOL

    Код:

    Внимание! Раздача ведётся путём добавления новых серий; при каждом добавлении создаётся новый торрент. Чтобы начать докачку новой серии, пользователям необходимо сделать следующее:(1) остановить скачивание,(2) удалить старый торрент у себя из клиента (старые серии удалять не надо),(3) скачать новый торрент и запустить его у себя в клиенте вместо старого, при этом указать клиенту путь в старую папку куда и должно происходить скачивание новых серий.Ваш клиент при этом должен произвести хеширование (проверку) старой папки (если не производит сам - помогите ему сделать это), и будет докачивать только те серии которых у вас ещё нет. Старые серии при этом не удаляются, а продолжают раздаваться!Eсли вы уже удалили старые серии, то предотвратить повторную закачку старых серий можно, отжав галочку в соответсвующих местах при запуске нового торрента. По возможности, желательно не удалять старые серии как можно дольше чтобы релизёр не столько продолжал раздавать старые серии, а смог сконцентрироваться на новых.

    Код:

    GeneralUnique ID                                : 177932529876289283675569522571428166338 (0x85DC8F096232DE03862063653A16FAC2)Complete name                            : I:\The.Hundred.S02E01.1080p.rus.LostFilm.TV.mkvFormat                                   : MatroskaFormat version                           : Version 2File size                                : 1.79 GiBDuration                                 : 42mn 41sOverall bit rate                         : 6 010 KbpsEncoded date                             : UTC 2014-10-24 17:28:17Writing application                      : mkvmerge v4.2.0 ('No Talking') сборка от Jul 28 2010 18:38:23Writing library                          : libebml v1.0.0 + libmatroska v1.0.0

    VideoID                                       : 1Format                                   : AVCFormat/Info                              : Advanced Video CodecFormat profile                           : [email protected] settings, CABAC                   : YesFormat settings, ReFrames                : 2 framesCodec ID                                 : V_MPEG4/ISO/AVCDuration                                 : 42mn 41sBit rate                                 : 5 242 KbpsWidth                                    : 1 920 pixelsHeight                                   : 1 080 pixelsDisplay aspect ratio                     : 16:9Frame rate                               : 23.976 fpsColor space                              : YUVChroma subsampling                       : 4:2:0Bit depth                                : 8 bitsScan type                                : ProgressiveBits/(Pixel*Frame)                       : 0.105Stream size                              : 1.53 GiB (85%)Writing library                          : x264 core 112 r1834 a51816aEncoding settings                        : cabac=1 / ref=1 / deblock=1:0:0 / analyse=0x3:0x133 / me=umh / subme=7 / psy=1 / psy_rd=1.00:0.00 / mixed_ref=0 / me_range=16 / chroma_me=1 / trellis=1 / 8x8dct=1 / cqm=0 / deadzone=21,11 / fast_pskip=1 / chroma_qp_offset=-2 / threads=6 / sliced_threads=0 / nr=0 / decimate=1 / interlaced=0 / constrained_intra=0 / bframes=5 / b_pyramid=0 / b_adapt=1 / b_bias=0 / direct=3 / weightb=1 / open_gop=0 / weightp=2 / keyint=250 / keyint_min=25 / scenecut=40 / intra_refresh=0 / rc_lookahead=40 / rc=2pass / mbtree=1 / bitrate=5242 / ratetol=1.0 / qcomp=0.60 / qpmin=0 / qpmax=51 / qpstep=4 / cplxblur=20.0 / qblur=0.5 / ip_ratio=1.40 / aq=1:1.00Default                                  : YesForced                                   : No

    Audio #1ID                                       : 2Format                                   : AC-3Format/Info                              : Audio Coding 3Mode extension                           : CM (complete main)Codec ID                                 : A_AC3Duration                                 : 42mn 41sBit rate mode                            : ConstantBit rate                                 : 384 KbpsChannel(s)                               : 2 channelsChannel positions                        : Front: L RSampling rate                            : 48.0 KHzBit depth                                : 16 bitsCompression mode                         : LossyStream size                              : 117 MiB (6%)Default                                  : YesForced                                   : No

    Audio #2ID                                       : 3Format                                   : AC-3Format/Info                              : Audio Coding 3Mode extension                           : CM (complete main)Codec ID                                 : A_AC3Duration                                 : 42mn 41sBit rate mode                            : ConstantBit rate                                 : 384 KbpsChannel(s)                               : 2 channelsChannel positions                        : Front: L RSampling rate                            : 48.0 KHzBit depth                                : 16 bitsCompression mode                         : LossyStream size                              : 117 MiB (6%)Default                                  : NoForced                                   : No

    Скриншоты:                 
  • Раздача ведётся путём добавления новых серий. Добавлена 16 серия (13.03.2015).Просьба перекачать торрент файл.
    KGEKADOL писал(а):

    Что касается даты премьеры 3-го сезона «Сотни», то ориентироваться можно на осень 2015 года.

    Скачать Сотня через торрент http://i64.fastpic.ru/big/2014/1025/5b/4563c57ac612e6cb58539a57380b5d5b.jpg Скачать фильм Сотня через торрент бесплантно в хорошем качестве Описание: Экранизация одноименного романа Касс Морган. После ста лет проведенных на орбите по окончании ядерной войны, руководство ... 2015-03-13 15:48 9.8 10 73

    Loading...

    Loading...

    Последний раз редактировалось: GEKADOL (2015-03-13 15:48), всего редактировалось 23 раз(а)

    Рекламный пират

    26-10-2014 17:25 Сотня Скачать торрент  

    Спасибо !!! Ура долго ждал !!!

    01-11-2014 06:11 Сотня Скачать торрент  

    Суперррр! Дождался. Спасибо!!!

    01-11-2014 19:56 Сотня Скачать торрент  

    Ребята! Расскажите плиз кто нибудь, чем этот сериал может понравиться то? После первого сезона осталось впечатление полного г.... Полнометражки по оригинальной истории даже 20 лет назад смотрелись на порядок лучше. Может я что то упустил?

    12-11-2014 14:43 Сотня Скачать торрент  

    Сериал бомба спс!!!!!!!!!!

    15-11-2014 08:22 Сотня Скачать торрент  

    Спасибо за спасибо!!!!!!!

    15-11-2014 08:23 Сотня Скачать торрент  

    Galdvir писал(а):

    Ребята! Расскажите плиз кто нибудь, чем этот сериал может понравиться то? После первого сезона осталось впечатление полного г.... Полнометражки по оригинальной истории даже 20 лет назад смотрелись на порядок лучше. Может я что то упустил?

    Если вам не понравилось зачем заходить?

    18-12-2014 19:00 Сотня Скачать торрент  

    Galdvir писал(а):

    Ребята! Расскажите плиз кто нибудь, чем этот сериал может понравиться то? После первого сезона осталось впечатление полного г.... Полнометражки по оригинальной истории даже 20 лет назад смотрелись на порядок лучше. Может я что то упустил?

    НЕ НРАВИТЬСЯ НЕ СМОТРИ! Х...Я ТУТ СОПЛИ РАЗМАЗЫВАТЬ!

    19-12-2014 18:22 Сотня Скачать торрент  

    Сериал - супер, хоть и игра актеров не совершенна и ляпов много, но все равно затягивает!с нетерпением ждем с женой продолжения!

    Pекламный агент PB

    20-12-2014 04:50 Сотня Скачать торрент  

    Руслан78 писал(а):

    Сериал - супер, хоть и игра актеров не совершенна и ляпов много, но все равно затягивает!с нетерпением ждем с женой продолжения! Вот и оно)

    27-12-2014 19:40 Сотня Скачать торрент  

    GEKADOL, Не томи, где уже 9 серия??? :film:

    29-12-2014 13:56 Сотня Скачать торрент  

    посмотрела 8 серию. Блин!!

    я только из-за Финна этот сериал и смотрю. надеюсь его как-нибудь воскресят!!

    29-12-2014 13:58 Сотня Скачать торрент  

    Руслан78 писал(а):

    GEKADOL, Не томи, где уже 9 серия??? :film: 21 января по графику(((

    05-01-2015 00:17 Сотня Скачать торрент  

    terry_nate писал(а):

    Руслан78 писал(а):

    GEKADOL, Не томи, где уже 9 серия??? :film: 21 января по графику(((Ждемс!!!

    23-01-2015 15:59 Сотня Скачать торрент  

    Уже 23 января, а 9-ой серии всё нет. Жаль :сonn:

    24-01-2015 10:53 Сотня Скачать торрент  

    Теперь в прежнем режиме раз в неделю) :ng:

    24-01-2015 21:58 Сотня Скачать торрент  

    Galdvir писал(а):

    Ребята! Расскажите плиз кто нибудь, чем этот сериал может понравиться то? После первого сезона осталось впечатление полного г.... Полнометражки по оригинальной истории даже 20 лет назад смотрелись на порядок лучше. Может я что то упустил?

    Просто на вкус и цвет - товарищей нет. Не нравится - не смотри ;Р

    Pекламный агент PB

    24-02-2015 16:32 Сотня Скачать торрент  

    Было б здорово, список серий еще добавить.

    26-02-2015 18:25 Сотня Скачать торрент  

    Впорядке сериал, затягивает :film:

    28-02-2015 05:01 Сотня Скачать торрент  

    Еще две серии, и в коллекцию!

    13-03-2015 16:50 Сотня Скачать торрент  

    Все БАСТА конец 2 сезона 2 последние серии ваще огонь))Ждем осень 2015(3 сезон)

    13-03-2015 21:31 Сотня Скачать торрент  

    под поном просто на красоту

    23-10-2015 01:21 Сотня Скачать торрент  

    Премьеру перенесли на март 2016 года, поэтому, на сей раз, сериал в новинках сериалов 2016 — го года.

    Дорогой пользователь! Огромная просьба, поблагодарите релизера, оцените раздачу и оставьте свои комментарий, если Вы скачали Сотня через торрент бесплатно! Внесите свою лепту в развитие PiratBit!

    Комментировать посты могут только пользователи прошедшие не сложную регистрацию

    Сотня через торрент Скачать бесплатно Сотня Сотня скачать торрент Сотня смотреть онлайн Cкачать фильм Сотня бесплатно Сотня скачать торрент в хорошем качестве Сотня смотреть онлайн бесплатно в хорошем качестве

    Вы не можете начинать темыВы не можете отвечать на сообщенияВы не можете редактировать свои сообщенияВы не можете удалять свои сообщенияВы не можете голосовать в опросахВы не можете прикреплять файлы к сообщениямВы можете скачивать файлы

    100 / Сотня (2 сезон) (2014)

    the-cinema.net

    Добавлены все серии

    Информация о сериале:Жанр: Фантастика, экранизацияСтрана: СШАГод выпуска: 2014Режиссер: Дин Уайт, Джон Беринг, Милан ЧейловПродолжительность: 16 серий по 43 мин.Перевод: Русская озвучка BaiBako | LostFilm | Alexfilm | ColdFilm | Субтитры В ролях: Элиза Тейлор, Мари Авгеропулос, Сачин Сахель, Линдси Морган, Женевьев Бюкнер, Рики Уиттл, Ричард Хэрмон, Джарод Джозеф, Челси Рейст, Крис Браунинг, Джош СсеттубаОписание фильма: По земной орбите уже целый век курсирует одинокий космический корабль, на котором живут люди, спасшиеся от страшной катастрофы. Руководство корабля решает, что пришла пора отправить на Землю первых переселенцев, что бы те посмотрели, что за эти годы случилось с планетой. Однако вместо профессионалов на Землю отправили сотню малолетних подростков-преступников (как подопытных кроликов). Как только челнок приземлился, то находившееся в нем сразу же были разделены на две группы. В первой были красивые и очень умные, которые хотят выжить. Вторая собрала в себе самых отъявленных негодяев… Но Землю заселили после ядерной войны звери-мутанты, в реках обитают злые хищники, но самое страшное живет в лесу….. Как спастись и выжить? Как добраться до старого бункера с едой и при этом не стать лакомым куском для зверей-мутантов? @ The-Cinema.net

    Оценки зрителей: Также советуем к онлайн просмотру:

    9.3

    Занимательность:

    9.0

    Игра актеров: Зарегистрируйтесь, если не хотите видеть этот баннер!

    Смотреть 100 / Сотня (2 сезон) онлайн:

    × График выхода серий: Статус: сериал продолжается
    5 сезон 6 серия Exit Wounds
    5 сезон 5 серия Shifting Sands
    5 сезон 4 серия Pandora's Box
    5 сезон 3 серия Sleeping Giants
    5 сезон 2 серия Red Queen
    5 сезон 1 серия Eden
    4 сезон 13 серия Praimfaya 24 мая 2017, Ср  
    4 сезон 12 серия The Chosen 17 мая 2017, Ср  
    4 сезон 11 серия The Other Side 10 мая 2017, Ср  
    4 сезон 10 серия Die All, Die Merrily 3 мая 2017, Ср  
    4 сезон 9 серия DNR 26 апр 2017, Ср  
    4 сезон 8 серия God Complex 29 мар 2017, Ср  
    4 сезон 7 серия Gimme Shelter 22 мар 2017, Ср  
    4 сезон 6 серия We Will Rise 15 мар 2017, Ср  
    4 сезон 5 серия The Tinder Box 1 мар 2017, Ср  
    4 сезон 4 серия A Lie Guarded 22 фев 2017, Ср  
    4 сезон 3 серия The Four Horsemen 15 фев 2017, Ср  
    4 сезон 2 серия Heavy Lies the Crown 8 фев 2017, Ср  
    4 сезон 1 серия Echoes 1 фев 2017, Ср  
    3 сезон 16 серия Perverse Instantiation, Part 2 19 мая 2016, Чт  
    3 сезон 15 серия Perverse Instantiation, Part 1 12 мая 2016, Чт  
    3 сезон 14 серия Red Sky at Morning 5 мая 2016, Чт  
    3 сезон 13 серия Join or Die 28 апр 2016, Чт  
    3 сезон 12 серия Demons 21 апр 2016, Чт  
    3 сезон 11 серия Nevermore 14 апр 2016, Чт  
    3 сезон 10 серия Fallen 7 апр 2016, Чт  
    3 сезон 9 серия Stealing Fire 31 мар 2016, Чт  
    3 сезон 8 серия Terms and Conditions 10 мар 2016, Чт  
    3 сезон 7 серия Thirteen 3 мар 2016, Чт  
    3 сезон 6 серия Bitter Harvest 25 фев 2016, Чт  
    3 сезон 5 серия Hakeldama 18 фев 2016, Чт  
    3 сезон 4 серия Watch the Thrones 11 фев 2016, Чт  
    3 сезон 3 серия Ye Who Enter Here 4 фев 2016, Чт  
    3 сезон 2 серия Wanheda, Part 2 28 янв 2016, Чт  
    3 сезон 1 серия Wanheda, Part 1 21 янв 2016, Чт  
    2 сезон 16 серия Blood Must Have Blood, Part 2 11 мар 2015, Ср  
    2 сезон 15 серия Blood Must Have Blood, Part 1 4 мар 2015, Ср  
    2 сезон 14 серия Bodyguard of Lies 25 фев 2015, Ср  
    2 сезон 13 серия Resurrection 18 фев 2015, Ср  
    2 сезон 12 серия Rubicon 11 фев 2015, Ср  
    2 сезон 11 серия Coup de Grâce 4 фев 2015, Ср  
    2 сезон 10 серия Survival of the Fittest 28 янв 2015, Ср  
    2 сезон 9 серия Remember Me 21 янв 2015, Ср  
    2 сезон 8 серия Spacewalker 17 дек 2014, Ср  
    2 сезон 7 серия Long Into an Abyss 10 дек 2014, Ср  
    2 сезон 6 серия Fog of War 3 дек 2014, Ср  
    2 сезон 5 серия Human Trials 19 ноя 2014, Ср  
    2 сезон 4 серия Many Happy Returns 12 ноя 2014, Ср  
    2 сезон 3 серия Reapercussions 5 ноя 2014, Ср  
    2 сезон 2 серия Inclement Weather 29 окт 2014, Ср  
    2 сезон 1 серия The 48 22 окт 2014, Ср  
    1 сезон 13 серия We Are Grounders, Part 2 11 июн 2014, Ср  
    1 сезон 12 серия We Are Grounders, Part 1 4 июн 2014, Ср  
    1 сезон 11 серия The Calm 28 мая 2014, Ср  
    1 сезон 10 серия I Am Become Death 21 мая 2014, Ср  
    1 сезон 9 серия Unity Day 14 мая 2014, Ср  
    1 сезон 8 серия Day Trip 7 мая 2014, Ср  
    1 сезон 7 серия Contents Under Pressure 30 апр 2014, Ср  
    1 сезон 6 серия His Sister's Keeper 23 апр 2014, Ср  
    1 сезон 5 серия Twilight's Last Gleaming 16 апр 2014, Ср  
    1 сезон 4 серия Murphy's Law 9 апр 2014, Ср  
    1 сезон 3 серия Earth Kills 2 апр 2014, Ср  
    1 сезон 2 серия Earth Skills 26 мар 2014, Ср  
    1 сезон 1 серия Pilot 19 мар 2014, Ср  
    Перевод BaibaKo

    Перевод LostFilm

    Перевод Alexfilm

    Перевод ColdFilm:

    Субтитры

      Скачать торрент "100 / Сотня (2 сезон)" бесплатно:

    Торрент №1

    Торрент №2 | WEB-DL 1080p

    Качество: WEB-DL 720p [1-10 серии из 16] (Что такое BDRip или DVDRip?)Видео: MPEG-4 AVC, ~ 4000 Кбит/с, 1280x718Аудио: Русский, английский (AC3, 6 ch, 384 Кбит/с)Размер: 14.34 GBПеревод: Профессиональный многоголосый [AlexFilm] Качество: WEB-DL 1080p (Что такое BDRip или DVDRip?)Видео: MPEG-4 AVC, ~ 5000 Кбит/с, 1916x1076Аудио: Аудио: Русский (AC3, 6 ch, 384 Кбит/с) Аудио: Английский (AC3, 6 ch, 384 Кбит/с)Размер: 28.54 ГБПеревод: Проф. (многоголосный)

    Ещё никто не оставил рецензию.

    ИнформацияПосетители, находящиеся в группе Гости, не могут оставлять комментарии к данной публикации.


    Смотрите также